<?xml version="1.0" standalone="no"?>
<!DOCTYPE svg PUBLIC "-//W3C//DTD SVG 1.1//EN" "http://www.w3.org/Graphics/SVG/1.1/DTD/svg11.dtd">
<svg xmlns="http://www.w3.org/2000/svg">
<metadata>Copyright (C) 2016 by original authors @ fontello.com</metadata>
<defs>
<font id="fontello" horiz-adv-x="1000" >
<font-face font-family="fontello" font-weight="400" font-stretch="normal" units-per-em="1000" ascent="850" descent="-150" />
<missing-glyph horiz-adv-x="1000" />
<glyph glyph-name="file" unicode="&#xe800;" d="M638 850h-276c-28 0-51-23-51-51v-898c0-28 23-51 51-51h276c28 0 51 23 51 51v898c0 28-23 51-51 51z m19-949c0-10-9-19-19-19h-276c-10 0-19 9-19 19v898c0 10 9 19 19 19h276c10 0 19-9 19-19v-898z m-157 241c-47 0-85-39-85-86s38-85 85-85 85 38 85 85-38 86-85 86z m0-139c-29 0-53 24-53 53s24 53 53 53 53-24 53-53-24-53-53-53z m86 726h-172c-19 0-34-15-34-33v-432c0-19 15-34 34-34h172c19 0 34 15 34 34v432c0 18-15 33-34 33z m2-465c0-1-1-1-2-1h-172c-1 0-1 0-1 1v432c0 0 0 1 1 1h172c1 0 2-1 2-1v-432z m-53 361h-70c-8 0-16-7-16-16s8-16 16-16h70c9 0 16 7 16 16s-7 16-16 16z m0-86h-70c-8 0-16-7-16-16s8-16 16-16h70c9 0 16 7 16 16s-7 16-16 16z m0-86h-70c-8 0-16-8-16-17s8-16 16-16h70c9 0 16 7 16 16s-7 17-16 17z m0-87h-70c-8 0-16-7-16-16s8-16 16-16h70c9 0 16 7 16 16s-7 16-16 16z" horiz-adv-x="1000" />

<glyph glyph-name="flag" unicode="&#xe801;" d="M904 840c-7 7-15 10-24 10-99-2-192-17-292-33-104-17-212-34-330-36-19 0-33-15-33-33v-1h-37v18c0 28-23 51-51 51s-51-23-51-51v-864c0-28 23-51 51-51s51 23 51 51v364h37v-1c0-9 3-18 10-24 6-6 14-10 23-10 0 0 0 0 1 0 120 2 229 20 335 37 98 15 191 30 287 32 18 0 33 15 33 33v484c0 10-4 18-10 24z m-748-939c0-10-9-19-19-19s-18 9-18 19v864c0 10 8 18 18 18s19-8 19-18v-864z m32 396v417h37v-417h-37z m693 35c0 0 0 0-1-1-98-1-192-16-292-32-104-17-212-35-330-36 0 0 0 0-1 0 0 0 0 0 0 1v484c0 0 1 1 1 1 120 1 230 19 336 36 98 16 190 31 286 33 0 0 0 0 0 0 0 0 1 0 1-1 0 0 0 0 0-1v-484h0z" horiz-adv-x="1000" />

<glyph glyph-name="folder" unicode="&#xe802;" d="M932 677h-252l-65 71c-20 21-47 33-76 33h-471c-37 0-68-31-68-68v-104-622c0-37 31-68 68-68h864c38 0 68 31 68 68v622c0 38-30 68-68 68z m-341 49l45-49h-60l-65 71c0 0 0 0-1 1h29c20 0 39-9 52-23z m-155 23c19 0 38-9 51-23l45-49h-67l-66 71c0 0 0 0 0 1h37z m-368 0h256c20 0 38-9 52-23l45-49h-353c-13 0-25-3-36-10v46c0 20 16 36 36 36z m900-762c0-20-16-36-36-36h-864c-20 0-36 16-36 36v622c0 20 16 36 36 36h864c20 0 36-16 36-36v-622z m-105 587h-242c-18 0-33-15-33-34v-173c0-18 15-33 33-33h242c18 0 33 15 33 33v173c0 19-15 34-33 34z m1-207c0 0-1-1-1-1h-242c-1 0-1 1-1 1v173c0 1 0 1 1 1h242c0 0 1 0 1-1v-173z m-53 137h-138c-9 0-16-7-16-16s7-16 16-16h138c9 0 16 7 16 16s-7 16-16 16z m0-69h-138c-9 0-16-7-16-16s7-16 16-16h138c9 0 16 7 16 16s-7 16-16 16z" horiz-adv-x="1000" />

<glyph glyph-name="gardening" unicode="&#xe803;" d="M953 183c-7 19-23 34-42 41-19 7-40 5-57-6l-169-101-24-10h-121c-2 0-3 1-3 2-1 0-1 1 0 3 0 1 1 1 2 1l92 33c36 12 56 49 47 84-5 18-17 33-34 42-16 9-36 10-53 4l-96-31-250-17c-17-1-32-8-44-20l-136-136c-26-26-29-68-6-95 6-7 33-32 72-69 23-22 45-43 55-53 3-3 7-5 11-5 4 0 8 1 11 4l75 62c15 13 35 20 56 20h256c9 0 18 2 27 6l121 52c0 0 0 0 1 0l6 3c0 0 0 1 1 1l171 103c29 17 42 52 31 82z m-48-55l-171-102-5-3-120-51c-5-2-9-3-14-3h-256c-28 0-56-10-77-28l-64-53c-11 11-28 27-45 43-28 27-64 61-69 67-12 14-10 37 4 51l136 136c6 6 14 10 23 11l252 16c2 0 3 1 4 1l98 33c4 1 7 1 11 1 6 0 12-1 17-4 9-4 15-12 17-22 5-18-6-37-25-44-1 0-1 0-1 0l-92-33c-9-3-16-10-20-18-6-11-5-24 1-35 7-10 18-16 31-16h125c2 0 4 0 6 1l27 12c1 0 2 0 2 1l170 102c9 5 20 6 30 3 11-4 18-12 22-22 6-16-1-34-17-44z m-292 242v-37c0-9 7-16 16-16s17 7 17 16v50c0 0 0 0 0 0v75c156 22 278 149 293 307 1 5-1 10-4 13-4 3-9 5-13 5-122-12-226-87-276-193v192c0 20 16 36 35 36 9 0 16 7 16 16s-7 16-16 16c-37 0-68-30-68-68v-61c-34 52-90 88-155 94-5 1-9-1-13-4-3-4-5-8-5-13 9-94 81-170 173-186v-110c-51 106-154 181-276 192-5 1-9-1-13-4-3-4-5-8-5-13 16-158 138-285 294-307z m-137 410c67-15 119-67 134-134-67 15-119 67-134 134z m428-32c-19-121-108-218-224-250l134 134c6 7 6 17 0 23-7 7-17 7-23 0l-137-137c30 119 128 210 250 230z m-299-318l-137 137c-6 6-17 6-23 0s-6-17 0-23l134-134c-116 32-205 129-225 250 123-20 221-111 251-230z" horiz-adv-x="1000" />

<glyph glyph-name="hourglass" unicode="&#xe804;" d="M758-51v119c0 41-16 80-45 109l-125 126c-13 12-20 29-20 47s7 35 20 48l125 125c29 29 45 68 45 109v119c20 7 35 26 35 48 0 28-23 51-51 51h-484c-28 0-51-23-51-51 0-22 15-41 35-48v-119c0-41 16-80 45-109l125-125c13-13 20-30 20-48s-7-35-20-47l-125-126c-29-29-45-68-45-109v-119c-20-7-35-26-35-48 0-28 23-51 51-51h484c28 0 51 23 51 51 0 22-15 41-35 48z m-500 869h484c10 0 18-9 18-19s-8-18-18-18h-484c-10 0-18 8-18 18s8 19 18 19z m52-664l125 126c19 18 29 43 29 70s-10 52-29 70l-125 126c-23 23-36 53-36 86v117h452v-117c0-33-13-63-36-86l-125-125c-19-19-29-44-29-71s10-52 29-70l125-126c23-23 36-53 36-86v-117h-452v117c0 33 13 63 36 86z m432-272h-484c-10 0-18 9-18 19s8 18 18 18h484c10 0 18-8 18-18s-8-19-18-19z m-415 106h346c9 0 16 7 16 16v64c0 23-9 44-25 60l-60 61c-3 3-7 4-12 4h-76v224c6 10 14 21 23 29l82 83c5 4 6 11 4 17-3 6-9 10-15 10h-220c-6 0-12-4-15-10-2-6-1-13 4-17l82-83c9-8 17-19 23-29v-224h-76c-5 0-9-1-12-4l-60-61c-16-16-25-37-25-60v-64c0-9 7-16 16-16z m103 536h141l-55-55c-6-5-11-12-16-18-5 6-10 13-16 18l-54 55z m-87-456c0 14 6 28 16 38l55 55h172l55-55c10-10 16-24 16-38v-47h-314v47z" horiz-adv-x="1000" />

<glyph glyph-name="info" unicode="&#xe805;" d="M594 315l2 33c27-9 56-14 85-14 143 0 259 116 259 258s-116 258-259 258c-136 0-249-107-257-242h-80c-39 0-74-15-100-43-26-28-40-64-37-103l9-147c0-64 27-121 69-159v-26l-28-42-134-37c-37-10-62-44-62-82v-68c0-28 22-51 50-51h588c28 0 51 23 51 51v68c0 38-26 72-63 82l-134 37-28 42v26c42 38 69 95 69 159z m-189-255l-86 72c26-15 55-23 86-23s60 8 86 23l-86-72z m-100 41l76-63-42-42c0 0 0 0-1 0 0 0 0 0 0 0l-52 78 19 27z m100-165c1 0 3 0 4 1l11-55h-30l11 55c1-1 3-1 4-1z m18 51c0-10-8-18-18-18s-18 8-18 18v11l18 18 18-18v-11z m6 51l76 63 19-27-52-78c0 0 0 0 0 0-1 0-1 0-1 0l-42 42z m252 780c125 0 226-102 226-226s-101-226-226-226c-28 0-56 6-83 16l5 80c3 39-11 75-37 103-26 28-61 43-100 43h-10c9 117 106 210 225 210z m-414-275c20 21 47 33 77 33h122c30 0 57-12 77-33 20-22 30-49 28-79l-3-48c-14 28-28 46-29 48-5 5-12 7-19 5-81-33-234-34-236-34-4 0-7-1-10-3-1-1-16-13-31-36l-4 68c-2 30 8 57 28 79z m-19-228c5 48 32 78 42 88 29 0 151 4 230 31 13-20 42-69 42-119 0-95-71-173-157-173-86 0-156 77-157 173z m-155-414v68c0 24 16 45 39 51l128 35 51-77c5-8 14-13 24-14 1 0 3-1 4-1 6 0 13 3 18 6 3-7 8-14 14-19l-14-68h-143v53c0 9-7 16-16 16s-17-7-17-16v-53h-70c-10 0-18 9-18 19z m624 68v-68c0-10-8-19-18-19h-70v53c0 9-8 16-17 16s-16-7-16-16v-53h-143l-14 68c6 5 11 12 14 19 5-3 12-6 18-6 2 0 3 1 4 1 10 1 19 6 24 14l51 77 128-35c23-6 39-27 39-51z m-53 501c-9 0-16-7-16-16s7-16 16-16h35c9 0 16 7 16 16s-7 16-16 16h-1v140h1c9 0 16 8 16 17s-7 16-16 16h-35c-9 0-16-8-16-16s7-17 16-17h1v-140h-1z m17 212c18 0 32 14 32 31s-14 31-32 31-31-14-31-31 14-31 31-31z" horiz-adv-x="1000" />

<glyph glyph-name="letter" unicode="&#xe806;" d="M925 432l-80 63v322c0 18-15 33-34 33h-622c-18 0-33-15-33-33v-322l-81-63c-4-3-6-8-6-13v-518c0-28 23-51 51-51h760c28 0 51 23 51 51v518c0 5-2 10-6 13z m-26-531c0-1 0-1-1-1l-306 243 307 243v-485z m-797 0v485l306-243-306-243c0 0 0 0 0 1z m463 262c-38-30-92-30-130 0l-63 50h256l-63-50z m-130-41c1 1 1 1 2 2 19-11 41-16 63-16 22 0 44 5 64 16 0-1 1-1 1-2l303-240h-736l303 240z m454 297l-44-35v70l44-35z m-700 399h622c1 0 1-1 1-1v-458l-143-114h-338l-143 114v128c0 0 0 0 0 0v330c0 0 0 1 1 1z m-33-434l-45 35 45 35v-70z m137 313h121c9 0 16 7 16 16s-7 16-16 16h-121c-9 0-16-7-16-16s7-16 16-16z m0-87h190c9 0 16 8 16 17s-7 16-16 16h-190c-9 0-16-8-16-16s7-17 16-17z m87-122c0-9 7-16 16-16h208c9 0 16 7 16 16s-7 16-16 16h-208c-9 0-16-7-16-16z m-87-102h414c9 0 17 7 17 16s-8 16-17 16h-414c-9 0-16-7-16-16s7-16 16-16z m0-87h414c9 0 17 8 17 16s-8 17-17 17h-414c-9 0-16-8-16-17s7-16 16-16z" horiz-adv-x="1000" />

<glyph glyph-name="light-bulb" unicode="&#xe807;" d="M749 751c-73 69-168 104-268 99-91-5-176-44-240-111-65-66-101-153-103-243-1-69 17-137 53-196 35-57 84-103 143-133 29-15 46-44 46-77v-91c0-43 21-77 53-91 4-33 33-58 67-58 34 0 63 25 67 58 31 13 53 44 53 79v103c0 33 18 62 46 77 121 62 196 185 196 321 0 101-40 194-113 263z m-161-661v-17h-175v17c0 6-1 13-2 19h178c-1-6-1-13-1-19z m0-87c-1 0-1 0-2 0h-172c-1 0-1 0-1 0v37h175v-37z m-88-121c-14 0-26 8-32 20h64c-6-12-18-20-32-20z m35 52h-70c-23 0-40 14-48 37h168c-7-21-27-37-50-37z m116 262c-23-12-41-31-52-54h-198c-11 22-29 42-52 53-54 28-99 70-130 122-33 54-50 115-48 178 1 82 34 161 93 222 58 60 136 96 218 100 6 0 12 1 18 1 85 0 165-32 227-91 66-63 102-147 102-239 0-123-68-235-178-292z m56 343h-7c-5 19-13 38-23 55l6 5c6 6 9 15 9 24s-3 17-9 23l-25 25c-13 13-34 13-47 0l-6-6c-17 11-35 18-54 23v8c0 18-15 33-34 33h-34c-19 0-34-15-34-33v-8c-19-5-37-12-54-23l-6 6c-13 13-34 13-47 0l-24-25c-7-6-10-14-10-23s3-18 10-24l5-5c-10-17-18-36-23-55h-7c-19 0-34-15-34-33v-35c0-18 15-33 34-33h7c5-20 13-38 23-55l-5-5c-7-7-10-15-10-24 0-9 3-17 10-24l24-24c6-7 15-10 24-10s17 3 23 10l6 5c17-10 35-18 54-23v-7c0-19 15-34 34-34h34c19 0 34 15 34 34v7c19 5 37 13 54 23l6-5c6-7 14-10 23-10 9 0 18 3 24 10l25 24c6 7 9 15 9 24s-3 17-9 24l-6 5c10 17 18 35 23 55h7c19 0 34 15 34 33v35c0 18-15 33-34 33z m1-68c0-1 0-1-1-1h-20c-8 0-15-6-16-13-5-25-14-47-28-67-4-7-3-15 2-21l15-14c0-1 0-1 0-1s0-1 0-1l-25-24c0-1-1-1-1 0l-15 14c-5 6-14 6-20 2-21-14-43-23-67-28-8-1-14-8-14-15v-21c0-1 0-1-1-1h-34c-1 0-1 0-1 1v21c0 7-6 14-14 15-24 5-46 14-66 28-3 2-6 3-10 3-4 0-8-2-11-5l-15-14c0-1-1-1-1 0l-25 24c0 0 0 1 0 1s0 0 0 1l15 14c5 6 6 14 2 21-14 20-23 42-28 67-1 7-8 13-16 13h-20c-1 0-1 0-1 1v35c0 0 0 1 1 1h20c8 0 15 5 16 13 5 24 14 47 28 67 4 6 3 15-2 20l-15 15c0 0 0 0 0 1s0 0 0 0l25 25c0 0 1 0 1 0l15-15c5-5 14-6 21-2 20 14 42 24 66 28 8 2 14 8 14 16v21c0 0 0 1 1 1h34c1 0 1-1 1-1v-21c0-8 6-14 14-16 24-4 46-14 67-28 6-4 15-3 20 2l15 15c0 0 1 0 1 0l25-25c0 0 0 0 0 0s0-1 0-1l-15-15c-5-5-6-14-2-20 14-20 23-43 28-67 1-8 8-13 16-13h20c1 0 1-1 1-1v-35z m-208 154c-76 0-137-61-137-137s61-137 137-137 137 62 137 137-61 137-137 137z m0-241c-58 0-105 47-105 104s47 105 105 105 105-47 105-105-47-104-105-104z m0 172c-37 0-68-30-68-68s31-68 68-68 68 31 68 68-30 68-68 68z m0-103c-20 0-36 16-36 35s16 36 36 36 36-16 36-36-16-35-36-35z" horiz-adv-x="1000" />

<glyph glyph-name="list" unicode="&#xe808;" d="M874 655l-190 190c-3 3-7 5-11 5h-501c-28 0-51-23-51-51v-898c0-28 23-51 51-51h656c28 0 51 23 51 51v743c0 4-2 8-5 11z m-185 140l135-135h-117c-10 0-18 8-18 18v117z m139-913h-656c-10 0-19 9-19 19v898c0 10 9 19 19 19h485v-140c0-28 22-50 50-50h140v-727c0-10-9-19-19-19z m-535 519h-35c-18 0-33-15-33-34v-34c0-19 15-34 33-34h35c18 0 33 15 33 34v34c0 19-15 34-33 34z m1-68c0-1-1-1-1-1h-35c0 0-1 0-1 1v34c0 1 1 1 1 1h35c0 0 1 0 1-1v-34z m85 35h156c9 0 16 8 16 17s-7 16-16 16h-156c-9 0-16-7-16-16s7-17 16-17z m0-69h225c9 0 16 8 16 16s-7 17-16 17h-225c-9 0-16-8-16-17s7-16 16-16z m-86 257h-35c-18 0-33-15-33-33v-35c0-18 15-33 33-33h35c18 0 33 15 33 33v35c0 18-15 33-33 33z m1-68c0 0-1-1-1-1h-35c0 0-1 1-1 1v35c0 0 1 1 1 1h35c0 0 1-1 1-1v-35z m85 36h225c9 0 16 7 16 16s-7 16-16 16h-225c-9 0-16-7-16-16s7-16 16-16z m380-37h-380c-9 0-16-7-16-16s7-16 16-16h380c9 0 16 7 16 16s-7 16-16 16z m-466 225h-35c-18 0-33-15-33-34v-34c0-19 15-34 33-34h35c18 0 33 15 33 34v34c0 19-15 34-33 34z m1-68c0-1-1-1-1-1h-35c0 0-1 0-1 1v34c0 1 1 1 1 1h35c0 0 1 0 1-1v-34z m85 35h156c9 0 16 8 16 17s-7 16-16 16h-156c-9 0-16-7-16-16s7-17 16-17z m0-69h225c9 0 16 8 16 17s-7 16-16 16h-225c-9 0-16-8-16-16s7-17 16-17z m-86-520h-35c-18 0-33-15-33-34v-34c0-19 15-34 33-34h35c18 0 33 15 33 34v34c0 19-15 34-33 34z m1-68c0-1-1-1-1-1h-35c0 0-1 0-1 1v34c0 1 1 1 1 1h35c0 0 1 0 1-1v-34z m85 35h156c9 0 16 8 16 17s-7 16-16 16h-156c-9 0-16-7-16-16s7-17 16-17z m225-36h-225c-9 0-16-8-16-17s7-16 16-16h225c9 0 16 7 16 16s-7 17-16 17z m-311 224h-35c-18 0-33-15-33-33v-35c0-18 15-33 33-33h35c18 0 33 15 33 33v35c0 18-15 33-33 33z m1-68c0 0-1-1-1-1h-35c0 0-1 1-1 1v35c0 0 1 1 1 1h35c0 0 1-1 1-1v-35z m85 36h225c9 0 16 7 16 16s-7 16-16 16h-225c-9 0-16-7-16-16s7-16 16-16z m380-37h-380c-9 0-16-7-16-16s7-16 16-16h380c9 0 16 7 16 16s-7 16-16 16z" horiz-adv-x="1000" />

<glyph glyph-name="loupe" unicode="&#xe809;" d="M673 850c-181 0-327-147-327-327 0-85 32-162 84-220l-67-68c-11 7-23 10-36 10-18 0-35-7-48-20l-259-259c-13-13-20-30-20-48s7-35 20-48c13-13 30-20 48-20s35 7 48 20l259 259c13 13 20 30 20 48 0 13-3 25-10 36l68 67c58-52 135-84 220-84 180 0 327 146 327 327s-147 327-327 327z m-580-957c-6-7-15-11-25-11s-18 4-25 11c-7 7-11 15-11 25s4 18 11 25l230 231 51-51-231-230z m259 259l-5-6-51 51 6 5c7 7 16 11 25 11s19-4 25-11c7-6 11-15 11-25s-4-18-11-25z m321 76c-163 0-295 132-295 295s132 295 295 295 295-133 295-295-133-295-295-295z m0 553c-142 0-258-116-258-258s116-258 258-258 258 116 258 258-116 258-258 258z m16-483v35c0 9-7 16-16 16s-16-7-16-16v-35c-112 8-201 97-209 209h35c9 0 16 7 16 16s-7 16-16 16h-35c8 112 97 201 209 209v-35c0-9 7-16 16-16s16 7 16 16v35c112-8 201-97 209-209 0 0 0 0-1 0h-34c-9 0-16-7-16-16s7-16 16-16h34c1 0 1 0 1 0-8-112-97-201-209-209z m116 334c7 7 7 17 0 23-6 7-16 7-23 0l-87-87c-6 4-14 6-22 6-22 0-41-15-48-35h-21c-9 0-16-7-16-16s7-16 16-16h21c0-3 1-5 2-7l-28-28c-6-6-6-17 0-23 3-3 7-5 12-5s8 2 11 5l28 28c7-3 15-5 23-5 22 0 41 15 48 35h73c9 0 16 7 16 16s-7 16-16 16h-73c-1 2-2 4-3 6l87 87z m-132-128c-10 0-19 9-19 19s9 18 19 18 18-8 18-18-8-19-18-19z" horiz-adv-x="1000" />

<glyph glyph-name="money" unicode="&#xe80a;" d="M953 183c-7 19-23 34-42 41-19 7-40 5-57-6l-169-101-24-10h-121c-2 0-3 1-3 2-1 0-1 1 0 3 0 1 1 1 2 1l92 33c36 12 56 49 47 84-5 18-17 33-34 42-16 9-36 10-53 4l-96-31-250-17c-17-1-32-8-44-20l-136-136c-26-26-29-68-6-95 6-7 33-32 72-69 23-22 45-43 55-53 3-3 7-5 11-5 4 0 8 1 11 4l75 62c15 13 35 20 56 20h256c9 0 18 2 27 6l121 52c0 0 0 0 1 0l6 3c0 0 0 1 1 1l171 103c29 17 42 52 31 82z m-48-55l-171-102-5-3-120-51c-5-2-9-3-14-3h-256c-28 0-56-10-77-28l-64-53c-11 11-28 27-45 43-28 27-64 61-69 67-12 14-10 37 4 51l136 136c6 6 14 10 23 11l252 16c2 0 3 1 4 1l98 33c4 1 7 1 11 1 6 0 12-1 17-4 9-4 15-12 17-22 5-18-6-37-25-44-1 0-1 0-1 0l-92-33c-9-3-16-10-20-18-6-11-5-24 1-35s18-16 31-16h125c2 0 4 0 6 1l27 12c1 0 2 0 2 1l170 102c9 5 20 6 30 3 11-4 18-12 22-22 6-16-1-34-17-44z m-275 206c142 0 258 116 258 258s-116 258-258 258-258-116-258-258 116-258 258-258z m0 484c124 0 226-102 226-226s-102-226-226-226-226 101-226 226 101 226 226 226z m-88-287c0 9-7 17-16 17s-16-8-16-17c0-31 28-57 69-69v-8c0-9 7-16 16-16s17 7 17 16v2c6-1 12-1 18-1s12 0 18 1v-2c0-9 8-16 17-16s16 7 16 16v8c41 12 69 38 69 69s-28 58-69 70v87c23-9 36-23 36-36 0-9 8-16 17-16s16 7 16 16c0 32-28 58-69 70v8c0 9-8 16-16 16s-17-7-17-16v-2c-6 1-12 1-18 1s-12 0-18-1v2c0 9-8 16-17 16s-16-7-16-16v-8c-41-12-69-38-69-70s28-57 69-69v-87c-23 9-37 22-37 35z m139 36c23-9 36-23 36-36s-13-26-36-35v71z m-69 129c5 0 12 1 18 1s12-1 18-1v-89c-6 1-12 1-18 1-6 0-13 1-18 1v87z m0-119c6-1 12-1 18-1 6 0 12-1 18-1v-87c-6 0-12-1-18-1s-13 1-18 1v89z m-70 75c0 13 14 27 37 36v-71c-23 8-37 22-37 35z" horiz-adv-x="1000" />

<glyph glyph-name="money-1" unicode="&#xe80b;" d="M594 315l2 33c27-9 56-14 85-14 143 0 259 116 259 258s-116 258-259 258c-136 0-249-107-257-242h-80c-39 0-74-15-100-43s-40-64-37-103l9-147c0-64 27-121 69-159v-26l-28-42-134-37c-37-10-62-44-62-82v-68c0-28 22-51 50-51h588c28 0 51 23 51 51v68c0 38-26 72-63 82l-134 37-28 42v26c42 38 69 95 69 159z m-143-299c0 0 0 0 0 0l-22 22 76 63 19-27-52-78c0 0 0 0 0 0-1 0-1 0-1 0l-20 20z m-92 0l-20-20c0 0 0 0-1 0 0 0 0 0 0 0l-52 78 19 27 76-63-22-22c0 0 0 0 0 0z m46 44l-86 72c26-15 55-23 86-23s60 8 86 23l-86-72z m0-124c1 0 3 0 4 1l11-55h-30l11 55c1-1 3-1 4-1z m18 51c0-10-8-18-18-18s-18 8-18 18v11l18 18 18-18v-11z m258 831c125 0 226-102 226-226s-101-226-226-226c-28 0-56 6-83 16l5 80c0 4 0 7 0 11 9-5 18-8 28-11v-8c0-9 7-16 16-16s16 7 16 16v2c6-1 12-1 18-1 7 0 13 0 19 1v-2c0-9 7-16 16-16s16 7 16 16v8c41 12 69 38 69 69s-28 58-69 70v87c23-9 37-23 37-36 0-9 7-16 16-16s16 7 16 16c0 32-28 58-69 70v8c0 9-7 16-16 16s-16-7-16-16v-2c-6 1-12 1-19 1s-12 0-18-1v2c0 9-7 16-16 16s-16-7-16-16v-8c-41-12-69-38-69-70s28-57 69-69v-87c-17 6-30 15-36 24-7 16-16 32-29 45-26 28-61 43-100 43h-10c9 117 106 210 225 210z m-18-122c6 0 12 1 18 1s13-1 19-1v-89c-6 1-12 1-19 1-6 0-12 1-18 1v87z m-32-79c-23 8-37 22-37 35s14 27 37 36v-71z m50-41c7 0 13-1 19-1v-87c-6 0-12-1-19-1-6 0-12 1-18 1v89c6-1 12-1 18-1z m51-9c23-9 37-23 37-36s-14-26-37-35v71z m-465-24c20 21 47 33 77 33h122c30 0 57-12 77-33 20-22 30-49 28-79l-3-48c-14 28-28 46-29 48-5 5-12 7-19 5-81-33-234-34-236-34-4 0-7-1-10-3-1-1-16-13-31-36l-4 68c-2 30 8 57 28 79z m-19-228c5 48 32 78 42 88 29 0 151 4 230 31 13-20 42-69 42-119 0-95-71-173-157-173-86 0-156 77-157 173z m-155-414v68c0 24 16 45 39 51l128 35 51-77c5-8 14-13 24-14 1 0 3-1 4-1 6 0 13 3 18 6 3-7 8-14 14-19l-14-68h-143v53c0 9-7 16-16 16s-17-7-17-16v-53h-70c-10 0-18 9-18 19z m624 68v-68c0-10-8-19-18-19h-70v53c0 9-8 16-17 16s-16-7-16-16v-53h-143l-14 68c6 5 11 12 14 19 5-3 12-6 18-6 2 0 3 1 4 1 10 1 19 6 24 14l51 77 128-35c23-6 39-27 39-51z" horiz-adv-x="1000" />

<glyph glyph-name="money-bag" unicode="&#xe80c;" d="M622 281c0-9 7-16 16-16s16 7 16 16c0 46-42 83-103 97v24c0 9-7 16-16 16s-17-7-17-16v-19c-6 0-12 1-18 1s-12-1-18-1v19c0 9-8 16-17 16s-16-7-16-16v-24c-61-14-103-51-103-97s42-84 103-97v-139c-41 11-71 35-71 63 0 9-7 16-16 16s-16-7-16-16c0-46 42-83 103-97v-24c0-9 8-16 16-16s17 7 17 16v19c6 0 12 0 18 0s12 0 18 0v-19c0-9 8-16 17-16s16 7 16 16v24c61 14 103 51 103 97s-42 84-103 97v140c41-12 71-36 71-64z m-244 0c0 28 30 52 71 64v-128c-41 12-71 36-71 64z m122-243c-6 0-12 0-18 1v140c6 0 12-1 18-1 6 0 12 0 18 0v-139c-6-1-12-1-18-1z m122 70c0-28-30-52-71-63v127c41-12 71-36 71-64z m-104 102c-6 0-12 1-18 1-6 0-12 0-18 1v138c6 1 12 1 18 1s12 0 18-1v-140z m88 382c9 9 14 21 14 35 0 24-17 44-39 49 24 22 39 54 39 89v52c0 18-15 33-34 33h-172c-19 0-34-15-34-33v-52c0-35 15-67 40-89-23-5-40-25-40-49 0-14 5-26 14-35-148-45-256-183-256-346v-242c0-85 70-154 155-154h414c86 0 155 69 155 154v242c0 163-108 301-256 346z m-193 173v52c0 0 0 1 1 1h172c1 0 2-1 2-1v-52c0-43-31-79-72-86v51c0 9-7 16-16 16s-16-7-16-16v-51c-41 7-71 43-71 86z m18-157c-10 0-18 8-18 19s8 18 18 18h138c10 0 19-8 19-18s-9-19-19-19h-138z m398-604c0-67-54-122-122-122h-414c-68 0-122 55-122 122v242c0 177 139 321 313 329v-52c0-9 7-16 16-16s16 7 16 16v52c174-8 313-152 313-329v-242z" horiz-adv-x="1000" />

<glyph glyph-name="office-chair" unicode="&#xe80d;" d="M811 487h-34c-28 0-51-23-51-51 0-22 14-41 34-48v-73c0-15-9-28-23-33-7 19-25 32-47 32h-139v37h105c28 0 50 23 50 51v328c0 66-53 120-120 120h-172c-66 0-120-54-120-120v-328c0-28 23-51 51-51h104v-37h-139c-21 0-40-13-47-32-14 5-23 18-23 33v73c20 7 34 26 34 48 0 28-22 51-50 51h-35c-28 0-51-23-51-51s23-50 51-50h18v-71c0-32 24-60 54-66 7-21 26-36 49-36h139v-53c0-22 15-41 35-48v-161h-139c-28 0-51-22-51-50s23-51 51-51 50 23 50 51c0 6-1 12-3 18h216c-2-6-3-12-3-18 0-28 23-51 51-51s50 23 50 51-22 50-50 50h-140v161c20 7 35 26 35 48v53h139c23 0 42 15 49 36 30 6 54 34 54 66v71h18c28 0 51 22 51 50s-23 51-51 51z m-640-51c0 11 8 19 18 19h35c10 0 18-8 18-19s-8-18-18-18h-35c-10 0-18 8-18 18z m192-535c0-10-8-19-18-19s-19 9-19 19 8 18 19 18 18-8 18-18z m293-19c-11 0-19 9-19 19s8 18 19 18 18-8 18-18-8-19-18-19z m-330 520v328c0 48 39 88 88 88h172c49 0 88-40 88-88v-328c0-10-8-18-18-18h-311c-11 0-19 8-19 18z m156-51h36v-37h-36v37z m36-191c0-10-8-18-18-18s-18 8-18 18v53h36v-53z m172 85h-380c-10 0-18 9-18 19s8 18 18 18h380c10 0 18-8 18-18s-8-19-18-19z m121 173h-34c-11 0-19 8-19 18s8 19 19 19h34c10 0 18-8 18-19s-8-18-18-18z" horiz-adv-x="1000" />

<glyph glyph-name="phone-call" unicode="&#xe80e;" d="M999 27c-3 24-17 45-38 57l-246 142c-31 17-69 12-94-12l-48-49c-13-13-34-14-48-3-38 31-76 65-112 101-36 36-70 74-101 112-11 14-10 35 3 48l49 48c24 25 29 63 12 94l-142 246c-12 21-33 35-57 38-24 4-48-4-65-22l-73-73c-51-51-52-144-2-263 47-114 136-240 250-354 114-114 240-203 354-250 58-25 111-37 155-37 45 0 82 13 108 39l73 73c18 17 26 41 22 65z m-301 171l247-142c12-7 20-19 22-33 2-12-1-24-8-33l-328 187 13 14c15 14 37 17 54 7z m-525 619c14-2 26-10 33-22l142-247c10-17 7-39-7-54l-13-12-188 327c8 6 17 9 27 9 2 0 4 0 6-1z m708-905c-40-41-123-39-228 4-110 47-232 133-343 244-111 111-197 233-243 343-44 105-46 188-5 228l54 55 189-328-13-12c-25-25-27-64-5-91 32-39 66-78 103-115 37-37 76-71 115-103 27-22 66-20 91 5l11 12 329-188-55-54z" horiz-adv-x="1000" />

<glyph glyph-name="podium" unicode="&#xe80f;" d="M947 349h-250c-7 0-13-1-19-4v274c0 28-24 52-53 52h-250c-29 0-53-24-53-52v-130c-6 2-12 3-19 3h-250c-29 0-53-23-53-52v-394c0-9 8-17 17-17h966c10 0 17 8 17 17v250c0 29-24 53-53 53z m-591 270c0 10 8 19 19 19h250c11 0 19-9 19-19v-556h-288v556z m-322-179c0 10 8 19 19 19h250c11 0 19-9 19-19v-377h-288v377z m932-377h-288v233c0 11 8 19 19 19h250c11 0 19-8 19-19v-233z m-215 181c9 0 16 7 16 17s-7 16-16 16h-36c-9 0-17-7-17-16s8-17 17-17h1v-110h-1c-9 0-17-7-17-17s8-16 17-16h36c9 0 16 7 16 16s-7 17-16 17h-2v110h2z m89 0c9 0 17 7 17 17s-8 16-17 16h-36c-9 0-16-7-16-16s7-17 16-17h1v-110h-1c-9 0-16-7-16-17s7-16 16-16h36c9 0 17 7 17 16s-8 17-17 17h-1v110h1z m-689 71c9 0 17 8 17 17s-8 17-17 17h-36c-9 0-17-8-17-17s8-17 17-17h1v-109h-1c-9 0-17-8-17-17s8-17 17-17h36c9 0 17 8 17 17s-8 17-17 17h-1v109h1z m90 0c9 0 16 8 16 17s-7 17-16 17h-36c-10 0-17-8-17-17s7-17 17-17h1v-109h-1c-10 0-17-8-17-17s7-17 17-17h36c9 0 16 8 16 17s-7 17-16 17h-2v109h2z m689-71c9 0 16 7 16 17s-7 16-16 16h-36c-9 0-17-7-17-16s8-17 17-17h1v-110h-1c-9 0-17-7-17-17s8-16 17-16h36c9 0 16 7 16 16s-7 17-16 17h-2v110h2z m-448 51c-9 0-17-7-17-17s8-16 17-16h36c9 0 17 7 17 16s-8 17-17 17h-1v110h1c9 0 17 7 17 17s-8 16-17 16h-36c-9 0-17-7-17-16s8-17 17-17h1v-110h-1z" horiz-adv-x="1000" />

<glyph glyph-name="productivity" unicode="&#xe810;" d="M867 339l-59 118c-5 11-7 23-4 34l12 63c0 1 1 2 1 3 0 162-132 293-293 293h-69c-181 0-327-147-327-327 0-90 21-165 42-237 22-74 44-151 44-247 0-6 3-11 8-14l277-169c6-4 13-6 20-6 7 0 13 2 19 5 12 7 19 19 19 33v65c0 48 40 87 88 87h57c44 0 82 35 85 78l11 134 43 17c13 6 23 16 28 29 5 14 4 28-2 41z m-28-29c-2-5-6-9-10-11l-52-20c-6-3-10-8-10-14l-12-144c-2-27-26-48-53-48h-57c-66 0-120-54-120-120v-65c0-3-2-4-3-5-1 0-3-1-6 0l-270 165c-1 96-23 173-45 247-21 73-41 142-41 228 0 162 132 295 295 295h69c143 0 259-116 260-259l-12-62c-4-18-1-38 7-54l59-118c2-5 3-10 1-15z m-332 231c9 0 16 7 16 16s-7 17-16 17h-20c-3 16-9 31-18 44l14 13c6 7 6 17 0 23-7 7-17 7-23 0l-14-14c-13 10-28 16-44 19v19c0 9-7 17-16 17s-17-8-17-17v-19c-16-3-31-9-43-19l-14 14c-7 7-17 7-23 0-7-6-7-16 0-23l14-13c-10-13-16-28-19-44h-19c-9 0-16-8-16-17s7-16 16-16h19c3-16 9-31 19-44l-14-14c-7-6-7-16 0-23 3-3 7-4 11-4s8 1 12 4l14 14c12-9 27-15 43-18v-20c0-8 8-16 17-16s16 8 16 16v20c16 3 31 9 44 18l14-14c3-3 7-4 11-4s8 1 12 4c6 7 6 17 0 23l-14 14c9 13 15 28 18 44h20z m-121-54c-39 0-71 32-71 70s32 71 71 71 70-32 70-71-32-70-70-70z m0 102c-18 0-32-14-32-32s14-31 32-31 31 14 31 31-14 32-31 32z m0-33c-1 0-1 1-1 1s0 1 1 1 1 0 1-1-1-1-1-1z m276 87h-3c-2 7-4 13-8 19l2 2c7 6 7 17 0 23-6 6-16 6-23 0l-2-2c-6 3-12 6-19 8v3c0 9-7 16-16 16s-16-7-16-16v-3c-7-2-13-5-19-8l-2 2c-7 6-17 6-23 0-7-6-7-17 0-23l2-2c-4-6-6-12-8-19h-3c-9 0-16-8-16-16s7-17 16-17h3c2-6 4-13 8-19l-2-2c-7-6-7-16 0-23 3-3 7-5 11-5s8 2 12 5l2 2c6-3 12-6 19-8v-3c0-9 7-16 16-16s16 7 16 16v3c7 2 13 5 19 8l2-2c4-3 8-5 12-5s8 2 11 5c7 7 7 17 0 23l-2 2c4 6 6 13 8 19h3c9 0 16 8 16 17s-7 16-16 16z m-69-52c-20 0-36 16-36 36s16 35 36 35 36-16 36-35-16-36-36-36z m42-103c-5 8-15 10-22 6l-4-2c-5 4-11 8-17 10v4c0 9-7 16-16 16s-16-7-16-16v-4c-7-2-13-6-18-10l-3 2c-8 4-18 2-22-6-5-8-2-18 6-22l3-2c-1-3-1-7-1-10s0-7 1-10l-3-2c-8-5-11-15-6-22 3-5 8-8 14-8 3 0 5 0 8 2l3 2c5-5 11-8 18-10v-4c0-9 7-16 16-16s16 7 16 16v4c6 2 12 5 17 10l4-2c2-2 5-2 8-2 5 0 11 3 14 8 4 7 1 17-6 22l-4 2c1 3 1 6 1 10s0 7-1 10l4 2c7 4 10 14 6 22z m-78-34c0 10 9 18 19 18s18-8 18-18-8-19-18-19-19 9-19 19z" horiz-adv-x="1000" />

<glyph glyph-name="puzzle" unicode="&#xe811;" d="M1000 799c0 28-23 51-51 51h-414c-14 0-26-5-35-14-9 9-21 14-35 14h-414c-28 0-51-23-51-51v-414c0-14 5-26 14-35-9-9-14-21-14-35v-414c0-28 23-51 51-51h414c14 0 26 5 35 14 9-9 21-14 35-14h414c28 0 51 23 51 51v414c0 14-5 26-14 35 9 9 14 21 14 35v414z m-465 19h414c10 0 19-9 19-19v-414c0-11-9-19-19-19h-140c-9 0-16 7-16 16v8c0 6 3 11 8 14 33 23 49 63 42 102-7 41-39 74-79 83-31 6-63-1-87-21-24-20-38-49-38-80 0-33 17-65 45-84 4-3 7-8 7-14v-8c0-9-7-16-16-16h-159v159c0 27-21 49-48 49h-8c-16 0-31-8-41-22-13-19-34-30-57-30-21 0-41 9-55 26-13 16-18 38-14 59 6 27 29 49 56 54 28 5 54-6 70-29 10-14 25-22 41-22h8c27 0 48 22 48 49v140c0 10 8 19 19 19z m-503-19c0 10 9 19 19 19h414c11 0 19-9 19-19v-140c0-9-7-16-16-16h-8c-6 0-11 3-14 8-23 33-62 49-102 42-41-7-74-39-82-79-7-31 1-63 20-87 20-24 49-38 80-38 33 0 65 17 84 45 3 4 8 7 14 7h8c9 0 16-7 16-16v-159h-159c-27 0-48-21-48-48v-8c0-16 8-31 21-41 19-13 30-34 30-57 0-21-9-41-26-55-16-13-38-18-59-14-27 6-49 29-54 56-5 28 6 54 29 70 14 10 22 25 22 41v8c0 27-22 48-49 48h-140c-10 0-19 8-19 19v414z m433-917h-414c-10 0-19 9-19 19v414c0 11 9 19 19 19h140c9 0 16-7 16-16v-8c0-6-3-11-8-14-33-23-49-62-42-102 7-41 39-74 79-82 7-2 15-3 22-3 24 0 46 8 65 23 24 20 38 49 38 80 0 33-17 65-45 84-4 3-7 8-7 14v8c0 9 7 16 16 16h159v-159c0-27 22-48 48-48h8c16 0 31 8 41 21 16 23 42 34 70 29 27-4 50-27 56-54 4-21-1-42-14-59-14-17-33-26-55-26-23 0-44 11-57 30-10 14-25 22-41 22h-8c-26 0-48-22-48-49v-140c0-10-8-19-19-19z m503 19c0-10-9-19-19-19h-414c-11 0-19 9-19 19v140c0 9 7 16 16 16h8c6 0 11-2 14-7 19-28 51-44 84-44 31 0 60 13 80 37 20 25 27 56 21 87-9 40-42 72-83 79-39 7-79-9-102-42-3-5-8-8-14-8h-8c-9 0-16 7-16 16v159h159c27 0 49 22 49 48v8c0 16-8 31-22 41-19 13-30 34-30 57 0 22 9 41 26 55 16 13 38 18 59 14 27-6 49-29 54-56 5-28-6-54-29-70-14-10-22-25-22-41v-8c0-26 22-48 49-48h140c10 0 19-8 19-19v-414z" horiz-adv-x="1000" />

<glyph glyph-name="reporting" unicode="&#xe812;" d="M777 815h-208c0 0 0 0 0 0-16 21-41 35-69 35s-53-14-68-35c-1 0-1 0-1 0h-207c-57 0-103-46-103-102v-760c0-57 46-103 103-103h553c56 0 102 46 102 103v760c0 56-46 102-102 102z m-277 3c29 0 53-24 53-53v-18c0-8 7-16 16-16h69c10 0 19-8 19-18s-9-18-19-18h-276c-10 0-19 8-19 18s9 18 19 18h69c9 0 16 8 16 16v18c0 29 24 53 53 53z m-138-156h276c28 0 51 23 51 51 0 0 0 1 0 1h88c0 0 1-1 1-1v-760c0-1-1-2-1-2h-553c-1 0-1 1-1 2v760c0 0 0 1 1 1h87c0 0 0-1 0-1 0-28 23-51 51-51z m485-709c0-39-32-71-70-71h-553c-39 0-71 32-71 71v760c0 39 32 70 71 70h193c-2-6-2-12-2-18v-1h-53c-15 0-29-7-38-18h-100c-19 0-34-15-34-33v-760c0-19 15-34 34-34h553c18 0 33 15 33 34v760c0 18-15 33-33 33h-101c-9 11-23 18-38 18h-53v1c0 6 0 12-2 18h194c38 0 70-31 70-70v-760z m-347 761c9 0 16 7 16 16v35c0 9-7 16-16 16s-16-7-16-16v-35c0-9 7-16 16-16z m-17-242h207c9 0 16 7 16 16s-7 16-16 16h-207c-9 0-16-7-16-16s7-16 16-16z m-184 28c-7-7-7-17 0-23l34-35c3-3 7-4 12-4s8 1 11 4l69 69c6 7 6 17 0 23-6 7-16 7-23 0l-57-57-24 23c-6 6-16 6-22 0z m184-201h207c9 0 16 8 16 16s-7 17-16 17h-207c-9 0-16-8-16-17s7-16 16-16z m-81 63l-57-58-24 23c-6 6-16 6-22 0s-7-17 0-23l34-35c3-3 7-4 12-4s8 1 11 4l69 70c6 6 6 16 0 23-6 6-16 6-23 0z m81-235h207c9 0 16 7 16 16s-7 16-16 16h-207c-9 0-16-7-16-16s7-16 16-16z m-81 62l-57-58-24 23c-6 6-16 6-22 0s-7-16 0-23l34-34c3-3 7-5 12-5s8 2 11 5l69 69c6 6 6 16 0 23-6 6-16 6-23 0z" horiz-adv-x="1000" />

<glyph glyph-name="rocket" unicode="&#xe813;" d="M500 558c38 0 68 31 68 69s-30 68-68 68-68-31-68-68 31-69 68-69z m0 104c20 0 36-16 36-35s-16-36-36-36-36 16-36 36 16 35 36 35z m219-348l-99 111v224c0 22-6 44-17 62l-75 124c0 0 0 0 0 0-6 9-17 15-28 15s-22-6-28-15c0 0 0 0 0 0l-75-124c-11-18-17-40-17-62v-224l-99-111c-25-29-39-65-39-103v-155-69c0-9 7-16 16-16s16 7 16 16v63l117 131c6-8 14-14 24-17v-39c0-12 7-23 17-29 1-46 9-154 54-238 3-5 8-8 14-8s11 3 14 8c46 84 53 192 54 238 10 6 17 17 17 29v39c10 3 18 9 24 17l117-131v-63c0-9 7-16 16-16s16 7 16 16v69 155c0 38-14 74-39 103z m-24-22c20-22 31-51 31-81v-112l-106 119v159l75-85z m-270 403l74 122c0 0 1 1 1 1s1-1 1-1l74-122c8-14 13-30 13-46v-110h-175v110c0 16 4 32 12 46z m-151-484c0 30 11 59 31 81l75 85v-159l-106-119v112z m279-50v-36c0 0-1-1-1-1h-104c0 0-1 1-1 1v36h106z m-53-257c-28 69-34 148-35 188h70c-1-40-7-119-35-188z m69 289h-138c-10 0-18 9-18 19v295h175v-295c0-10-9-19-19-19z" horiz-adv-x="1000" />

<glyph glyph-name="shoe" unicode="&#xe814;" d="M983 20v67c0 26-16 51-41 62-80 35-153 93-204 163-55 76-84 162-84 250 0 22 2 45 5 67 4 26-6 51-27 66l-194 141c-11 8-24 12-38 10-13-3-25-10-33-21l-260-356c-5 2-11 3-17 2-9-1-17-6-22-13l-62-84c-11-15-7-36 8-47l589-430c39-28 84-43 132-43h232c18 0 33 15 33 33v104c0 13-7 24-17 29z m-590 786c3 4 8 7 12 8 5 0 10-1 14-4l194-141c11-8 16-21 14-35-3-24-5-48-5-72 0-19 1-37 3-56l-50-17c-9-3-14-12-11-20 3-7 9-11 16-11 1 0 3 0 5 1l46 15c2-13 6-25 9-38l-48-16c-9-3-13-12-10-20 2-7 8-11 15-11 2 0 3 0 5 0l49 17c4-12 10-24 15-36l-50-17c-8-3-13-12-10-20 2-7 8-11 15-11 2 0 4 0 5 1l55 18c7-12 14-23 21-34l-55-18c-9-3-13-12-10-21 2-7 8-11 15-11 2 0 4 0 5 1l60 20c2 0 3 1 5 2 54-69 127-126 207-161 13-6 21-18 21-32v-62h-215c-11 0-22 3-31 10l-570 416 259 355z m575-919c0 0-1-1-1-1h-232c-41 0-80 13-113 37l-589 430c-1 1-1 1 0 2l61 84c0 0 0 0 1 0 0 0 0 0 0 0 0 0 0 0 0 0l590-430c14-11 32-17 50-17h232c0 0 1 0 1-1v-104z" horiz-adv-x="1000" />

<glyph glyph-name="speedometer" unicode="&#xe815;" d="M867 339l-59 118c-5 11-7 23-4 34l12 63c0 1 1 2 1 3 0 162-132 293-293 293h-69c-181 0-327-147-327-327 0-90 21-165 42-237 22-74 44-151 44-247 0-6 3-11 8-14l277-169c6-4 13-6 20-6 7 0 13 2 19 5 12 7 19 19 19 33v65c0 48 40 87 88 87h57c44 0 82 35 85 78l11 134 43 17c13 6 23 16 28 29 5 14 4 28-2 41z m-28-29c-2-5-6-9-10-11l-52-20c-6-3-10-8-10-14l-12-144c-2-27-26-48-53-48h-57c-66 0-120-54-120-120v-65c0-3-2-4-3-5-1 0-3-1-6 0l-270 165c-1 96-23 173-45 247-21 73-41 142-41 228 0 162 132 295 295 295h69c143 0 259-116 260-259l-12-62c-4-18-1-38 7-54l59-118c2-5 3-10 1-15z m-367 419c-123 0-223-100-223-223 0-26 4-51 13-75 3-8 12-13 20-10 9 3 13 12 10 21-5 15-9 31-10 47h17c9 0 16 8 16 17s-7 16-16 16h-17c2 23 8 45 17 65l15-9c3-2 6-2 8-2 6 0 11 3 14 8 5 8 2 18-5 22l-16 9c13 18 29 34 48 47l9-15c3-5 8-8 14-8 2 0 5 1 8 2 8 5 10 15 6 22l-9 16c20 9 42 15 65 17v-18c0-9 7-16 16-16s16 7 16 16v18c23-2 45-8 65-17l-9-16c-4-7-1-17 6-22 3-1 6-2 8-2 6 0 11 3 14 8l9 15c19-13 35-29 48-47l-15-9c-8-4-11-14-6-22 3-5 8-8 14-8 2 0 5 0 8 2l15 9c10-20 16-42 18-65h-18c-9 0-16-7-16-16s7-17 16-17h17c-1-16-4-32-10-47-3-9 2-18 10-21 2 0 4-1 5-1 7 0 13 4 16 11 8 24 13 49 13 75 0 123-101 223-224 223z m75-126l-52-52c-7 3-15 5-23 5-28 0-51-22-51-50s23-51 51-51 51 23 51 51c0 8-2 15-5 22l52 53c6 6 6 16 0 22-6 7-17 7-23 0z m-75-116c-10 0-18 8-18 19s8 18 18 18 18-8 18-18-8-19-18-19z" horiz-adv-x="1000" />

<glyph glyph-name="speedometer-1" unicode="&#xe816;" d="M998 251c-11 118-65 228-150 311-86 83-198 133-316 140-70 5-139-5-205-30-63-23-120-58-169-104-49-47-88-101-115-163-29-64-43-132-43-202 0-55 9-109 26-160 10-28 36-46 65-46h818c30 0 55 18 65 46 22 67 30 137 24 208z m-55-198c-5-14-18-24-34-24h-818c-16 0-29 10-34 24-16 48-25 99-25 150 0 66 14 129 40 189 26 58 62 109 108 152 88 82 200 127 320 127 10 0 20-1 30-1 227-14 414-196 436-422 6-67-2-132-23-195z m-245 371l-207-151c-2-1-3-2-3-3-32-6-56-34-56-67 0-37 31-68 68-68 33 0 61 24 67 56 1 1 2 2 3 3l150 207c5 6 4 15-1 21-6 6-15 6-21 2z m-198-256c-20 0-36 16-36 35s16 36 36 36 36-16 36-36-16-35-36-35z m60 67c-6 12-16 22-28 28l102 74-74-102z m338 133c0 0 0 0 0 0-22 52-53 99-92 138 0 1-1 1-1 2-1 0-2 1-2 2-40 38-86 70-138 91 0 0 0 0 0 0 0 0 0 0-1 0-50 21-106 33-164 33-58 0-114-12-164-33-1 0-1 0-1 0 0 0 0 0 0 0-52-21-98-53-138-91 0-1-1-2-2-2 0-1-1-1-1-2-39-39-70-86-92-138 0 0 0 0 0 0 0 0 0 0 0 0-21-51-33-107-33-165 0-43 6-85 19-125 2-7 8-12 15-12h794c7 0 13 5 15 12 13 40 19 82 19 125 0 58-12 114-33 165 0 0 0 0 0 0z m-13-270h-769c-8 29-13 59-14 89h35c9 0 16 7 16 16s-7 16-16 16h-35c2 43 10 84 24 122l33-14c2-1 4-1 6-1 6 0 12 4 15 10 3 8-1 18-9 21l-33 13c18 38 41 73 69 103l25-25c3-3 7-4 11-4s9 1 12 4c6 7 6 17 0 23l-25 25c30 28 65 51 103 69l13-33c3-6 9-10 15-10 2 0 4 1 6 1 9 4 13 13 9 22l-13 32c38 14 78 23 121 24v-35c0-9 7-16 16-16s16 7 16 16v35c43-1 83-10 121-24l-13-32c-3-9 0-18 9-22 2 0 4-1 6-1 6 0 12 4 15 10l13 33c38-18 73-41 103-69l-25-25c-6-6-6-16 0-23 3-3 7-4 12-4s8 1 11 4l25 25c28-30 51-65 69-103l-33-13c-8-3-12-13-9-21 3-6 9-10 15-10 2 0 4 0 6 1l33 14c14-38 22-79 24-122h-35c-9 0-16-7-16-16s7-16 16-16h35c-1-30-6-60-13-89z" horiz-adv-x="1000" />

<glyph glyph-name="stemware" unicode="&#xe817;" d="M974-67c-2 9-11 14-20 11l-16-4c-23-6-47-3-67 9-20 11-34 30-41 53 0 0 0 0 0 0l-70 264c32 12 59 36 76 67 19 36 22 77 9 115l-127 379c-6 17-23 26-40 22l-169-45c-3-1-6-2-9-4-3 2-5 3-9 4l-169 45c-17 4-34-5-40-22l-127-379c-13-38-10-79 10-115 16-31 43-55 75-67l-70-264c0 0 0 0 0 0-6-23-21-42-41-53-20-12-44-15-67-9 0 0 0 0 0 0l-16 4c-9 3-18-2-20-11-2-9 3-18 11-20l217-58c0 0 0 0 0 0 0 0 0 0 0 0l17-4c2-1 3-1 4-1 7 0 14 5 16 12 2 9-3 17-12 20l-16 4c-23 6-42 21-53 41-12 20-15 44-9 66v0l0 0 70 264c8-1 15-1 23-1 26 0 53 7 76 22 35 21 58 55 66 95l64 315 64-315c8-40 31-74 66-95 23-15 50-22 76-22 8 0 15 0 23 1l70-264c0 0 0 0 0 0v0c6-22 3-46-9-66-11-20-30-35-53-41l-16-4c-9-3-14-11-12-20 2-7 9-12 16-12 1 0 3 0 4 1l17 4c0 0 0 0 0 0 0 0 0 0 0 0l200 54h0l17 4c8 2 13 11 11 20z m-792-22c0-1 1-2 2-4l-42 12c1 0 2 1 3 2 9 5 17 11 25 18 2-9 6-19 12-28z m171 394c-27-16-59-21-89-13 0 0 0 0 0 0 0 0 0 0 0 0-31 8-56 28-71 56-15 28-18 60-8 90l15 43c13 1 21 7 28 11 5 4 8 6 15 6 8 0 11-2 16-6 7-5 17-11 35-11 17 0 27 6 34 11 5 4 8 6 16 6 7 0 10-2 16-6 7-5 16-11 34-11 17 0 26 6 33 11l-22-113c-7-31-25-57-52-74z m131 466l-49-241c-12-2-20-7-25-11-6-4-9-6-16-6s-10 2-16 6c-7 5-17 11-34 11s-27-6-35-11c-5-4-8-6-15-6-8 0-11 2-16 6-7 5-17 11-35 11-14 0-23-4-29-8l99 295c0 0 1 1 1 1l169-46c1 0 1 0 1-1z m33 1l169 46c0 0 0 0 0 0 1 0 1-1 1-1l99-295c-6 4-15 8-29 8-18 0-28-6-35-11-5-4-8-6-16-6-7 0-10 2-15 6-7 5-17 11-35 11s-27-6-34-11c-5-4-8-6-16-6s-10 2-16 6c-5 4-13 9-25 11l-49 241c0 1 1 1 1 1z m130-467c-27 17-45 43-52 74l-22 113c7-5 16-11 33-11 18 0 27 6 35 11 5 4 8 6 15 6 8 0 11-2 16-6 7-5 17-11 34-11 18 0 28 6 35 11 5 4 8 6 16 6s10-2 16-6c6-4 14-10 27-11l15-43c10-30 7-62-8-90-15-28-40-48-71-56 0 0 0 0 0 0 0 0 0 0 0 0-30-8-62-3-89 13z m171-394c6 9 10 19 12 28 8-7 16-13 25-18 1-1 2-2 3-2l-42-12c1 2 2 3 2 4z" horiz-adv-x="1000" />

<glyph glyph-name="tactics" unicode="&#xe818;" d="M887 850h-387c-28 0-52-23-52-52v-177h-98c-39 0-75-15-102-44s-40-65-38-104l10-150c0-65 27-123 70-161v-27l-29-43-135-37c-38-10-64-45-64-84v-69c0-29 23-52 51-52h598c29 0 52 23 52 52v69c0 39-27 74-64 84l-136 37-29 43v27c43 38 70 96 70 161l3 37h280c28 0 52 23 52 52v386c0 29-24 52-52 52z m-615-295c20 22 48 34 78 34h125c29 0 57-12 77-34 21-22 31-50 29-80l-3-49c-14 28-29 47-30 48-4 6-12 8-19 6-83-34-238-34-240-34-4 0-7-2-10-4-1-1-17-13-31-36l-5 69c-1 30 9 58 29 80z m187-536c0 0 0 0 0 0l-22 22 77 65 19-28-52-79c0 0-1-1-1-1-1 0-1 1-1 1l-20 20z m-94 0l-20-20c0 0 0-1-1-1 0 0 0 1 0 1l-53 79 19 28 78-65-23-22c0 0 0 0 0 0z m47-81c2 0 3 0 4 0l12-55h-31l11 55c1 0 3 0 4 0z m19 52c0-11-9-19-19-19s-19 8-19 19v10l19 19 19-19v-10z m-19 74l-88 73c27-15 57-23 88-23s62 8 88 23l-88-73z m-317-162v69c0 24 16 46 39 52l130 35 52-77c6-9 15-14 25-15 1 0 2-1 4-1 6 0 13 3 19 6 3-7 7-14 13-19l-14-69h-145v54c0 9-8 16-17 16s-16-7-16-16v-54h-72c-10 0-18 8-18 19z m635 69v-69c0-11-9-19-19-19h-71v54c0 9-8 16-17 16s-16-7-16-16v-54h-146l-14 69c6 5 11 12 14 19 5-3 12-6 19-6 1 0 2 1 3 1 10 1 19 6 25 15l52 77 130-35c23-6 40-28 40-52z m-318 176c-87 0-159 79-159 176 5 49 32 80 42 90 30 0 153 3 234 31 14-20 42-69 42-120 0-98-71-177-159-177z m494 265c0-11-9-19-19-19h-278l5 80c0 10 0 19-1 28l205 205v-48c0-9 7-17 16-17s17 8 17 17v88c0 9-8 16-17 16h-88c-9 0-16-7-16-16s7-17 16-17h48l-191-192c-7 15-16 29-27 40-25 27-58 43-95 44v177c0 11 9 19 19 19h387c10 0 19-8 19-19v-386z m-254 345c-6 7-17 7-23 0l-32-32-33 32c-6 7-16 7-23 0-6-6-6-17 0-23l32-32-32-33c-6-6-6-16 0-23 3-3 8-5 12-5s8 2 11 5l33 32 32-32c3-3 7-5 12-5s8 2 11 5c7 7 7 17 0 23l-32 33 32 32c7 6 7 17 0 23z m194-193c-7 6-17 6-24 0l-32-32-32 32c-7 6-17 6-23 0-7-7-7-17 0-23l32-33-32-32c-7-6-7-17 0-23 3-4 7-5 11-5s9 1 12 5l32 32 32-32c4-4 8-5 12-5s9 1 12 5c6 6 6 17 0 23l-33 32 33 33c6 6 6 16 0 23z" horiz-adv-x="1000" />

<glyph glyph-name="tactics-1" unicode="&#xe819;" d="M1000 618c0 28-23 51-51 51h-433v22c20 7 35 25 35 48 0 28-23 51-51 51s-51-23-51-51c0-23 15-41 35-48v-22h-433c-28 0-51-23-51-51 0-22 15-41 35-48v-609c0-28 22-51 50-51h830c28 0 50 23 50 51v609c21 7 35 26 35 48z m-500 139c10 0 18-8 18-18s-8-19-18-19-18 9-18 19 8 18 18 18z m415-814h-830c-10 0-18 8-18 18v606h866v-606c0-10-8-18-18-18z m34 657h-898c-10 0-19 8-19 18s9 18 19 18h898c10 0 19-8 19-18s-9-18-19-18z m-576-495l318 318v-47c0-9 7-16 16-16s17 7 17 16v86c0 9-8 17-17 17h-86c-9 0-16-8-16-17s7-16 16-16h47l-318-318c0 0 0 0 0 0-7 3-15 5-23 5-28 0-50-23-50-51s22-51 50-51 51 23 51 51c0 8-2 16-5 23 0 0 0 0 0 0z m-46-41c-10 0-18 8-18 18s8 19 18 19 19-9 19-19-9-18-19-18z m-46 318c3-3 8-5 12-5s8 2 11 5l23 23 23-23c4-3 8-5 12-5s8 2 11 5c7 6 7 16 0 23l-23 23 23 23c7 6 7 16 0 23-6 6-16 6-23 0l-23-23-23 23c-6 6-16 6-23 0-6-7-6-17 0-23l23-23-23-23c-6-7-6-17 0-23z m173 0c3-3 7-5 11-5s9 2 12 5l23 23 23-23c3-3 7-5 12-5s8 2 11 5c6 6 6 16 0 23l-23 23 23 23c6 6 6 16 0 23-6 6-17 6-23 0l-23-23-23 23c-6 6-17 6-23 0-6-7-6-17 0-23l23-23-23-23c-6-7-6-17 0-23z m-173-173c3-3 8-5 12-5s8 2 11 5l23 23 23-23c4-3 8-5 12-5s8 2 11 5c7 6 7 17 0 23l-23 23 23 23c7 6 7 17 0 23-6 6-16 6-23 0l-23-23-23 23c-6 6-16 6-23 0-6-6-6-17 0-23l23-23-23-23c-6-6-6-17 0-23z m438-81c-6 7-17 7-23 0l-23-23-23 23c-7 7-17 7-23 0-7-6-7-16 0-23l23-23-23-23c-7-6-7-16 0-23 3-3 7-5 11-5s9 2 12 5l23 23 23-23c3-3 7-5 11-5s9 2 12 5c6 7 6 17 0 23l-23 23 23 23c6 7 6 17 0 23z m-173 0c-6 7-17 7-23 0l-23-23-23 23c-6 7-17 7-23 0-6-6-6-16 0-23l23-23-23-23c-6-6-6-16 0-23 3-3 7-5 11-5s9 2 12 5l23 23 23-23c3-3 7-5 12-5s8 2 11 5c6 7 6 17 0 23l-23 23 23 23c6 7 6 17 0 23z m173 173c-6 6-17 6-23 0l-23-23-23 23c-7 6-17 6-23 0-7-6-7-17 0-23l23-23-23-23c-7-6-7-17 0-23 3-3 7-5 11-5s9 2 12 5l23 23 23-23c3-3 7-5 11-5s9 2 12 5c6 6 6 17 0 23l-23 23 23 23c6 6 6 17 0 23z" horiz-adv-x="1000" />

<glyph glyph-name="tag" unicode="&#xe81a;" d="M983 391l-147 147c-23 23-53 36-85 36h-700c-28 0-51-23-51-51v-346c0-28 23-50 51-50h700c32 0 62 12 85 35l147 147c23 23 23 59 0 82z m-23-59l-147-147c-17-17-39-26-62-26h-700c-10 0-19 8-19 18v346c0 10 9 18 19 18h700c23 0 45-9 62-25l147-148c10-10 10-26 0-36z m-797 88h43c9 0 17 7 17 16s-8 17-17 17h-43c-33 0-59-27-59-60s26-59 59-59c15 0 27-12 27-27 0-15-12-27-27-27h-43c-9 0-16-7-16-16s7-17 16-17h43c33 0 60 27 60 60 0 33-27 59-60 59-15 0-27 12-27 27s12 27 27 27z m179 22c-2 7-8 11-15 11s-12-4-15-11l-69-172c-3-9 1-18 9-21 8-4 18 0 21 9l17 41h75l16-41c3-7 9-11 15-11 2 0 4 1 6 2 9 3 13 12 9 21l-69 172z m-39-110l24 61 25-61h-49z m249-52h-88v156c0 9-7 17-16 17s-16-8-16-17v-172c0-9 7-17 16-17h104c9 0 16 8 16 17s-7 16-16 16z m155 140c9 0 17 7 17 16s-8 17-17 17h-103c-9 0-16-8-16-17v-172c0-9 7-17 16-17h103c9 0 17 8 17 17s-8 16-17 16h-87v54h53c9 0 16 7 16 16s-7 16-16 16h-53v54h87z m139-19c-28 0-51-23-51-51s23-51 51-51 50 23 50 51-22 51-50 51z m0-69c-10 0-19 8-19 18s9 18 19 18 18-8 18-18-8-18-18-18z" horiz-adv-x="1000" />

<glyph glyph-name="target" unicode="&#xe81b;" d="M999 719c-3 6-9 10-15 10h-105v105c0 6-4 12-10 15-6 2-13 1-18-4l-125-125c-22-22-35-53-35-85v-71l-26-26c-71 65-165 105-269 105-218 0-396-178-396-397s178-396 396-396 397 178 397 396c0 104-40 198-105 269l26 26h71c32 0 63 13 85 35l125 125c5 5 6 12 4 18z m-275-84c0 24 9 46 25 62l98 98v-75l-123-124v39z m36-389c0-200-163-364-364-364s-364 164-364 364 164 364 364 364c95 0 181-36 246-95l-51-51c-51 47-120 75-195 75-161 0-292-131-292-293s131-292 292-292 293 131 293 292c0 75-28 144-75 195l51 51c59-65 95-151 95-246z m-311 0c0-29-23-53-53-53s-53 24-53 53 24 53 53 53c9 0 17-2 25-6l-36-35c-6-6-6-17 0-23 3-3 7-5 11-5s9 2 12 5l35 36c4-8 6-16 6-25z m-5 71c-14 9-30 15-48 15-47 0-85-39-85-86s38-85 85-85 86 38 86 85c0 18-6 34-15 48l51 51c22-27 35-61 35-99 0-86-70-156-157-156s-156 70-156 156 70 157 156 157c38 0 72-13 99-35l-51-51z m74 74c-33 28-75 44-122 44-104 0-189-84-189-189s85-189 189-189 189 85 189 189c0 47-16 89-44 122l50 51c41-46 66-107 66-173 0-143-117-260-261-260s-260 117-260 260 117 261 260 261c66 0 127-25 173-66l-51-50z m329 208c-16-16-38-25-62-25h-38l123 123h75l-98-98z" horiz-adv-x="1000" />

<glyph glyph-name="task" unicode="&#xe81c;" d="M154 850c-85 0-154-69-154-154s69-155 154-155 155 69 155 155-69 154-155 154z m0-276c-67 0-122 54-122 122s55 122 122 122 123-55 123-122-55-122-123-122z m0-70c-85 0-154-69-154-154s69-154 154-154 155 69 155 154-69 154-155 154z m0-276c-67 0-122 55-122 122s55 122 122 122 123-55 123-122-55-122-123-122z m0-69c-85 0-154-69-154-155s69-154 154-154 155 69 155 154-69 155-155 155z m0-277c-67 0-122 55-122 122s55 123 122 123 123-55 123-123-55-122-123-122z m41 860l-58-58-23 23c-6 6-16 6-23 0s-6-17 0-23l35-34c3-4 7-5 11-5s8 1 12 5l69 69c6 6 6 16 0 23-7 6-17 6-23 0z m0-346l-58-58-23 24c-6 6-16 6-23 0s-6-17 0-23l35-35c3-3 7-5 11-5s8 2 12 5l69 69c6 6 6 17 0 23-7 6-17 6-23 0z m184 335h311c9 0 16 8 16 16s-7 17-16 17h-311c-9 0-16-8-16-17s7-16 16-16z m0-103h605c9 0 16 7 16 16s-7 16-16 16h-605c-9 0-16-7-16-16s7-16 16-16z m0-242h311c9 0 16 7 16 16s-7 16-16 16h-311c-9 0-16-7-16-16s7-16 16-16z m605-72h-605c-9 0-16-7-16-16s7-16 16-16h605c9 0 16 7 16 16s-7 16-16 16z m-605-274h311c9 0 16 7 16 16s-7 17-16 17h-311c-9 0-16-8-16-17s7-16 16-16z m605-71h-605c-9 0-16-8-16-16s7-17 16-17h605c9 0 16 8 16 17s-7 16-16 16z" horiz-adv-x="1000" />

<glyph glyph-name="time" unicode="&#xe81d;" d="M612 576h21c1-2 2-5 3-7l-28-28c-7-6-7-16 0-23 3-3 7-5 11-5s8 2 12 5l28 28c7-3 14-5 22-5 23 0 42 15 49 35h72c9 0 17 7 17 16s-8 16-17 16h-72c-1 2-2 4-3 6l87 87c6 7 6 17 0 23-6 7-17 7-23 0l-87-87c-7 4-14 6-23 6-22 0-41-15-48-35h-21c-9 0-16-7-16-16s7-16 16-16z m69 34c11 0 19-8 19-18s-8-18-19-18-18 8-18 18 8 18 18 18z m-87-295l2 33c27-9 56-14 85-14 143 0 259 116 259 258s-116 258-259 258c-136 0-249-107-257-242h-80c-39 0-74-15-100-43s-40-64-37-103l9-147c0-64 27-121 69-159v-26l-28-42-134-37c-37-10-62-44-62-82v-68c0-28 22-51 50-51h588c28 0 51 23 51 51v68c0 38-26 72-63 82l-134 37-28 42v26c42 38 69 95 69 159z m-143-299c0 0 0 0 0 0l-22 22 76 63 19-27-52-78c0 0 0 0 0 0s-1 0-1 0l-20 20z m-92 0l-20-20c0 0 0 0-1 0 0 0 0 0 0 0l-52 78 19 27 76-63-22-22c0 0 0 0 0 0z m46 44l-86 72c26-15 55-23 86-23s60 8 86 23l-86-72z m0-124c1 0 3 0 4 1l11-55h-30l11 55c1-1 3-1 4-1z m18 51c0-10-8-18-18-18s-18 8-18 18v11l18 18 18-18v-11z m242 830v-35c0-9 8-16 16-16s17 7 17 16v35c111-8 201-97 209-209-1 0-1 0-1 0h-34c-9 0-17-7-17-16s8-16 17-16h34c0 0 0 0 1 0-8-112-98-201-209-209v35c0 9-8 16-17 16s-16-7-16-16v-35c-23 1-45 7-67 15l5 80c3 39-11 75-37 103s-61 43-100 43h-10c8 112 98 201 209 209z m-398-274c20 21 47 33 77 33h122c30 0 57-12 77-33 20-22 30-49 28-79l-3-48c-14 28-28 46-29 48-5 5-12 7-19 5-81-33-234-34-236-34-4 0-7-1-10-3-1-1-16-13-31-36l-4 68c-2 30 8 57 28 79z m-19-228c5 48 32 78 42 88 29 0 151 4 230 31 13-20 42-69 42-119 0-95-71-173-157-173-86 0-156 77-157 173z m-155-414v68c0 24 16 45 39 51l128 35 51-77c5-8 14-13 24-14 1 0 3-1 4-1 6 0 13 3 18 6 3-7 8-14 14-19l-14-68h-143v53c0 9-7 16-16 16s-17-7-17-16v-53h-70c-10 0-18 9-18 19z m624 68v-68c0-10-8-19-18-19h-70v53c0 9-8 16-17 16s-16-7-16-16v-53h-143l-14 68c6 5 11 12 14 19 5-3 12-6 18-6 2 0 3 1 4 1 10 1 19 6 24 14l51 77 128-35c23-6 39-27 39-51z" horiz-adv-x="1000" />

<glyph glyph-name="woman" unicode="&#xe81e;" d="M806 126l-78 20c9 3 19 8 29 12 61 27 88 49 88 71 0 229-31 389-93 489-55 89-138 132-252 132s-197-43-252-132c-62-100-92-260-92-489 0-22 26-44 87-71 10-4 20-9 29-12l-77-20c-54-13-91-61-91-116v-109c0-28 22-51 50-51h692c28 0 50 23 50 51v109c0 55-37 103-90 116z m-445 8c30 8 52 35 52 66v16c27-13 56-20 87-20 30 0 60 7 88 20v-16c0-31 21-58 51-66l20-5c-39-48-99-103-159-125-60 22-119 77-159 125l20 5z m139 94c-115 0-208 117-208 260v11c90 82 265 93 334 94 13-44 37-102 79-152-9-58-33-112-70-151-38-40-86-62-135-62z m-312 2c0 222 29 376 87 471 50 79 121 117 225 117s175-38 225-117c59-95 87-249 87-471-1-2-9-17-72-44-29-13-57-23-68-26l-25 6c-16 4-27 18-27 34v34c14 10 27 21 39 34 42 46 70 108 79 176 0 5-1 9-4 13-45 51-68 113-80 157-2 7-8 11-16 11-36 0-108-2-183-18-84-18-149-48-191-90-3-3-5-7-5-11v-18c0-108 49-203 121-253v-35c0-16-11-30-27-34l-25-6c-11 3-39 13-67 26-64 27-72 42-73 44z m676-329c0-10-8-19-18-19h-88v80c0 9-7 16-16 16s-16-7-16-16v-80h-452v80c0 9-7 16-16 16s-16-7-16-16v-80h-88c-10 0-18 9-18 19v109c0 40 27 75 66 85l104 26c65-86 140-133 189-149 2-1 3-1 5-1s3 0 5 1c49 16 124 63 189 149l104-26c39-10 66-45 66-85v-109z" horiz-adv-x="1000" />

<glyph glyph-name="worldwide" unicode="&#xe81f;" d="M594 315l2 33c27-9 56-14 85-14 143 0 259 116 259 258s-116 258-259 258c-136 0-249-107-257-242h-80c-39 0-74-15-100-43-26-28-40-64-37-103l9-147c0-64 27-121 69-159v-26l-28-42-134-37c-37-10-62-44-62-82v-68c0-28 22-51 50-51h588c28 0 51 23 51 51v68c0 38-26 72-63 82l-134 37-28 42v26c42 38 69 95 69 159z m-189-255l-86 72c26-15 55-23 86-23s60 8 86 23l-86-72z m-100 41l76-63-42-42c0 0 0 0-1 0 0 0 0 0 0 0l-52 78 19 27z m100-165c1 0 3 0 4 1l11-55h-30l11 55c1-1 3-1 4-1z m18 51c0-10-8-18-18-18s-18 8-18 18v11l18 18 18-18v-11z m6 51l76 63 19-27-52-78c0 0 0 0 0 0-1 0-1 0-1 0l-42 42z m173 402c20 8 41 13 63 14v-86c-23 6-46 26-64 56l1 16z m196-18c6-4 12-7 17-12-12-9-25-16-39-23 6 8 12 16 17 26 2 3 4 6 5 9z m-100-54v86c24-2 49-7 71-17-19-36-44-62-71-69z m0 119v89h105c-1-40-9-78-21-109-26 11-55 18-84 20z m0 121v89c29 2 58 9 84 20 12-32 20-69 21-109h-105z m0 122v86c27-8 52-33 71-69-22-10-47-15-71-17z m95 41c-5 9-11 18-17 26 14-7 27-14 39-24-5-4-11-8-17-11-1 3-3 6-5 9z m-228-9c-6 3-12 7-17 11 12 10 25 17 39 24-6-8-12-17-17-26-2-3-4-6-5-9z m100 54v-86c-24 2-49 7-71 17 19 36 44 61 71 69z m0-119v-89h-105c1 40 9 77 21 109 26-11 55-18 84-20z m-105-126c0 2 0 3 0 5h105v-89c-21-2-42-6-62-12-1 34-13 65-37 90-2 2-4 4-6 6z m281-139c-10 7-19 14-29 20 14 37 22 79 24 124h71c-4-56-29-107-66-144z m66 176h-71c-2 45-10 87-24 124 10 6 19 13 29 20 37-37 62-88 66-144z m-385 144c10-7 19-14 29-20-14-37-22-79-24-124h-61-10c4 56 29 107 66 144z m-255-209c20 21 47 33 77 33h96 26c30 0 57-12 77-33 20-22 30-49 28-79l-3-48c-14 28-28 46-29 48-5 5-12 7-19 5-81-33-234-34-236-34-4 0-7-1-10-3-1-1-16-13-31-36l-4 68c-2 30 8 57 28 79z m-19-228c5 48 32 78 42 88 29 0 151 4 230 31 13-20 42-69 42-119 0-95-71-173-157-173-86 0-156 77-157 173z m-155-414v68c0 24 16 45 39 51l128 35 51-77c5-8 14-13 24-14 1 0 3-1 4-1 6 0 13 3 18 6 3-7 8-14 14-19l-14-68h-143v53c0 9-7 16-16 16s-17-7-17-16v-53h-70c-10 0-18 9-18 19z m624 68v-68c0-10-8-19-18-19h-70v53c0 9-8 16-17 16s-16-7-16-16v-53h-143l-14 68c6 5 11 12 14 19 5-3 12-6 18-6 2 0 3 1 4 1 10 1 19 6 24 14l51 77 128-35c23-6 39-27 39-51z" horiz-adv-x="1000" />

<glyph glyph-name="address-book" unicode="&#xe820;" d="M675 227c-3 20-18 36-37 41l-87 22v31c32 22 52 59 52 98v52c0 57-46 103-103 103h-35c-56 0-102-46-102-103v-52c0-39 20-76 52-98v-31l-87-22c-20-5-34-21-38-41l-7-41c-2-15 2-30 12-42s24-17 38-17h299c15 0 29 6 39 17 9 12 14 27 11 42l-7 41z m-29-62c-3-4-8-6-14-6h-299c-5 0-10 2-14 6-3 5-5 10-4 15l7 42c1 7 7 12 14 14l99 26c7 2 12 8 12 15v52c0 6-3 12-8 14-27 16-44 45-44 76v52c0 39 32 70 70 70h35c39 0 70-31 70-70v-52c0-31-17-60-44-76-5-2-8-8-8-14v-52c0-7 5-13 13-15l99-26c7-2 12-7 13-14l7-42c1-5 0-10-4-15z m234 599h-18v18c0 38-31 68-68 68h-622c-38 0-68-30-68-68v-70h-19c-9 0-16-7-16-16s7-17 16-17h19v-54h-19c-9 0-16-7-16-16s7-16 16-16h19v-54h-19c-9 0-16-7-16-16s7-16 16-16h19v-54h-19c-9 0-16-8-16-17s7-16 16-16h19v-54h-19c-9 0-16-7-16-16s7-16 16-16h19v-54h-19c-9 0-16-7-16-16s7-17 16-17h19v-54h-19c-9 0-16-7-16-16s7-16 16-16h19v-54h-19c-9 0-16-7-16-16s7-16 16-16h19v-54h-19c-9 0-16-8-16-17s7-16 16-16h19v-70c0-38 30-68 68-68h622c37 0 68 30 68 68v295h18c28 0 51 23 51 51v449c0 28-23 51-51 51z m-18-240h37v-71h-37v71z m0 32v72h37v-72h-37z m0-136h37v-71h-37v71z m18 311c10 0 19-8 19-18v-53h-37v71h18z m-51-813c0-20-16-36-35-36h-622c-20 0-36 16-36 36v70h18c9 0 17 7 17 16s-8 17-17 17h-18v54h18c9 0 17 7 17 16s-8 16-17 16h-18v54h18c9 0 17 7 17 16s-8 16-17 16h-18v54h18c9 0 17 8 17 17s-8 16-17 16h-18v54h18c9 0 17 7 17 16s-8 16-17 16h-18v54h18c9 0 17 7 17 16s-8 17-17 17h-18v54h18c9 0 17 7 17 16s-8 16-17 16h-18v54h18c9 0 17 7 17 16s-8 16-17 16h-18v54h18c9 0 17 8 17 17s-8 16-17 16h-18v70c0 20 16 36 36 36h622c19 0 35-16 35-36v-864z m51 327h-18v72h37v-53c0-10-9-19-19-19z" horiz-adv-x="1000" />

<glyph glyph-name="address-book-1" unicode="&#xe821;" d="M189 781c-9 0-16-7-16-16v-830c0-9 7-16 16-16s16 7 16 16v830c0 9-7 16-16 16z m673-348v349c0 38-31 68-68 68h-622c-38 0-68-30-68-68v-864c0-38 30-68 68-68h622c37 0 68 30 68 68v349c20 7 34 26 34 48v70c0 22-14 41-34 48z m-277 385h106v-209c0 0 0 0 0-1-1 0-1 0-2 0l-41 31c-6 5-14 5-19 0l-42-31c0 0 0 0-1 0-1 1-1 1-1 1v209z m209-936h-622c-20 0-36 16-36 36v864c0 20 16 36 36 36h381v-209c0-13 7-24 18-30 5-2 10-3 15-3 8 0 15 2 21 6l31 24 32-24c10-7 24-8 35-3 11 6 19 17 19 30v209h70c19 0 35-16 35-36v-347h-87c-47 0-85-38-85-85s38-85 85-85h87v-347c0-20-16-36-35-36z m70 433c0-10-8-18-18-18 0 0 0 0 0 0 0 0 0 0 0 0h-104c-29 0-53 24-53 53s24 53 53 53h104c10 0 18-8 18-18v-70z m-122 51c-4 0-8-1-11-5-4-3-5-7-5-11 0-4 1-8 5-11 3-3 7-5 11-5s8 2 11 5c3 3 5 7 5 11s-2 8-5 11c-3 4-7 5-11 5z" horiz-adv-x="1000" />

<glyph glyph-name="aim" unicode="&#xe822;" d="M984 366h-53c-9 225-190 406-415 415v53c0 9-7 16-16 16s-16-7-16-16v-53c-225-9-406-190-415-415h-53c-9 0-16-7-16-16s7-16 16-16h53c9-225 190-406 415-415v-53c0-9 7-16 16-16s16 7 16 16v53c225 9 406 190 415 415h53c9 0 16 7 16 16s-7 16-16 16z m-86 0h-71c-8 168-143 303-311 311v71c207-8 374-175 382-382z m-156-32h52c-8-150-128-270-278-278v52c0 9-7 16-16 16s-16-7-16-16v-52c-150 8-270 128-278 278h52c9 0 16 7 16 16s-7 16-16 16h-52c8 150 128 270 278 278v-52c0-9 7-16 16-16s16 7 16 16v52c150-8 270-128 278-278h-52c-9 0-16-7-16-16s7-16 16-16z m-258 414v-71c-168-8-303-143-311-311h-71c8 207 175 374 382 382z m-382-414h71c8-168 143-303 311-311v-71c-207 8-374 175-382 382z m414-382v71c168 8 303 143 311 311h71c-8-207-175-374-382-382z m-16 466c-37 0-68-30-68-68s31-68 68-68 68 31 68 68-30 68-68 68z m0-104c-20 0-36 16-36 36s16 36 36 36 36-16 36-36-16-36-36-36z" horiz-adv-x="1000" />

<glyph glyph-name="alarm-clock" unicode="&#xe823;" d="M242 229c0-142 116-258 258-258s258 116 258 258-116 258-258 258-258-116-258-258z m483 16c0 0 0 0 0 0h-35c-9 0-16-7-16-16s7-16 16-16h35c0 0 0 0 0 0-8-112-97-201-209-209v35c0 9-7 16-16 16s-16-7-16-16v-35c-112 8-201 97-209 209h35c9 0 16 7 16 16s-7 16-16 16h-35c8 112 97 201 209 209v-35c0-9 7-16 16-16s16 7 16 16v35c112-8 201-97 209-209z m-202 30c-7 3-15 5-23 5-22 0-41-15-48-35h-21c-9 0-16-7-16-16s7-16 16-16h21c1-2 2-4 3-6l-29-29c-6-6-6-16 0-23 3-3 8-4 12-4s8 1 11 4l29 29c6-4 14-6 22-6 22 0 41 15 48 35h73c9 0 16 7 16 16s-7 16-16 16h-73c-1 2-1 5-2 7l86 87c7 6 7 16 0 23-6 6-16 6-22 0l-87-87z m-23-64c-10 0-18 8-18 18s8 18 18 18 18-8 18-18-8-18-18-18z m372 358c-5 18-16 32-32 41l-76 44 9 16c5 8 2 18-6 22-7 5-17 2-22-6l-9-16-47 27v33c0 66-54 120-120 120h-138c-66 0-120-54-120-120v-33l-47-27-9 16c-5 8-14 11-22 6-8-4-11-14-6-22l9-16-76-44c-15-9-27-23-31-41-5-18-3-36 6-52l26-45c5-7 12-13 21-15 2-1 5-1 8-1 6 0 12 1 17 4l106 61 10-17c-90-58-150-160-150-275 0-116 60-217 151-276l-45-79c-5-8-2-17 6-22 2-1 5-2 8-2 5 0 11 3 14 8l45 79c44-22 95-35 148-35 52 0 101 12 145 34l49-78c3-5 8-8 13-8 3 0 6 1 9 2 8 5 10 15 5 23l-47 77c92 58 153 160 153 277 0 115-59 217-150 275l10 17 106-61c5-3 11-4 17-4 3 0 6 0 8 1 9 2 16 8 21 15l26 45c9 16 11 34 7 52z m-681-81c0 0-1 0-1 0 0 0-1 1-1 1l-26 45c-4 8-6 17-3 27s8 16 16 21l180 104c6 3 12 5 18 5 3 0 6-1 9-2 9-2 17-8 22-16l26-45c0-1 0-1-1-2l-239-138z m604-259c0-162-132-295-295-295s-295 133-295 295 132 295 295 295 295-132 295-295z m-146 291c-40 21-85 34-133 36v89h1c9 0 17 7 17 16s-8 16-17 16h-34c-9 0-16-7-16-16s7-16 16-16h1v-89c-48-2-93-15-133-36l-10 17 105 61c16 10 22 30 13 46l-26 45c-9 16-24 27-42 32-16 4-33 2-48-5v14c0 48 40 88 88 88h138c48 0 88-40 88-88v-14c-15 7-32 9-48 5-18-5-33-16-42-32l-26-45c-9-16-3-36 13-46l105-61-10-17z m188 14l-26-45c0 0 0-1-1-1 0 0-1 0-1 0l-239 138c-1 1-1 1-1 2l26 45c5 8 13 14 22 16 3 1 6 2 9 2 6 0 13-2 18-5l180-104c8-5 14-12 16-21s1-19-3-27z" horiz-adv-x="1000" />

<glyph glyph-name="avatar" unicode="&#xe824;" d="M862 129l-158 40c-1 1-2 2-2 2l-48 48v45c4 4 8 8 12 12 44 51 70 119 74 192 0 3 1 6 1 9 0 10 1 19 2 28l15 156c5 48-11 97-43 133-33 35-79 56-128 56h-174c-49 0-95-21-128-56s-48-85-43-133l15-156c1-9 2-18 2-28 0-3 1-6 1-9 4-73 30-141 74-192 4-4 8-8 12-12v-45l-47-48c-1 0-2-1-2-2l-159-40c-66-16-103-57-103-115v-113c0-28 22-51 50-51h830c28 0 50 23 50 51v113c0 58-36 99-103 115z m-379-175h34c2 0 3 0 4 0l12-72h-66l12 72c1 0 3 0 4 0z m53 50c0-10-9-18-19-18h-34c-10 0-19 8-19 18v26l36 24 36-24v-26z m-158 232c37-26 79-40 122-40s85 14 122 40v-17l-122-123-122 123v17z m183-184c0 0 0 0 0 0l-36 24 113 113 32-32c-11-19-36-64-71-128 0 0-1-1-1-1 0 0-1 0-1 0l-36 24z m-252 720c27 29 64 46 104 46h174c40 0 77-17 104-46 26-29 39-68 35-108l-10-98c-22 52-46 85-47 87-6 7-15 9-23 4-42-29-232-33-301-32-5 1-9-1-13-5-19-22-35-47-47-69l-11 113c-4 40 9 79 35 108z m-17-302c0 3 0 6 0 9 0 2-1 4-1 6 4 10 24 64 61 108 45 0 228 0 298 30 14-22 43-73 59-138 0-2 0-4-1-6 0-3 0-6 0-9-7-136-99-242-208-242s-200 106-208 242z m70-281l113-113-36-24c0 0 0 0 0 0l-36-24c0 0 0 0-1 0 0 0 0 1-1 1-35 64-60 109-71 128l32 32z m-295-288v113c0 43 27 71 79 84l158 39c9-16 29-51 69-124 5-8 12-14 21-16 3-1 6-1 8-1 7 0 13 2 19 5l11 8v-5c0-14 6-28 17-37l-15-85h-211v88c0 9-8 16-17 16s-16-7-16-16v-88h-105c-10 0-18 9-18 19z m866 0c0-10-8-19-18-19h-105v88c0 9-7 16-16 16s-16-7-16-16v-88h-212l-14 85c10 9 16 23 16 37v5l11-8c6-3 12-5 19-5 2 0 5 0 8 1 9 2 16 8 21 16 40 73 60 107 69 124l158-39c52-13 79-41 79-84v-113z" horiz-adv-x="1000" />

<glyph glyph-name="balance" unicode="&#xe825;" d="M1000 263c0 0 0 0 0 1 0 0 0 0 0 0 0 0 0 1 0 1 0 0 0 0 0 1 0 0 0 0 0 0 0 1 0 1 0 1 0 0 0 1-1 1 0 0 0 1 0 1 0 0 0 0 0 0l-149 414c27 9 46 35 46 64 0 9-7 17-16 17s-16-8-16-17c0-19-16-35-36-35-53 0-90 15-129 31-42 18-85 36-151 38-5 15-17 27-32 32v21c0 9-7 16-16 16s-16-7-16-16v-21c-15-5-27-17-32-32-66-2-109-20-151-38-39-16-76-31-129-31-20 0-36 16-36 35 0 9-7 17-16 17s-16-8-16-17c0-29 19-55 46-64l-149-414c0 0 0 0 0 0 0 0 0-1 0-1 0 0 0-1-1-1 0 0 0 0 0-1 0 0 0 0 0 0 0-1 0-1 0-1 0 0 0-1 0-1 0 0 0 0 0 0 0-1 0-1 0-1 0 0 0 0 0 0 0-33 19-64 53-86 32-21 74-33 119-33s87 12 119 33c33 22 52 53 52 86 0 0 0 0 0 0 0 0 0 0 0 1 0 0 0 0 0 0 0 0 0 1 0 1 0 0 0 0 0 1 0 0 0 0 0 0 0 1 0 1 0 1 0 0 0 1 0 1 0 0 0 1 0 1 0 0 0 0 0 0l-149 411c48 4 84 19 119 33 39 16 80 33 139 35 5-15 17-26 32-31v-474c-20-7-35-26-35-48 0-14 5-26 14-35-9-9-14-21-14-35v-174h-70c-28 0-51-22-51-50v-35c0-9 8-16 17-16h311c9 0 16 7 16 16v35c0 28-23 50-51 50h-70v174c0 14-5 26-14 35 9 9 14 21 14 35 0 22-15 41-35 48v474c15 5 27 16 32 31 59-2 100-19 139-35 35-14 71-29 119-33l-148-411c0 0 0 0 0 0-1 0-1-1-1-1 0 0 0-1 0-1 0 0 0 0 0-1 0 0 0 0 0 0 0-1 0-1 0-1 0 0 0-1 0-1 0 0 0 0 0 0 0-1 0-1 0-1 0 0 0 0 0 0 0-33 19-64 52-86 32-21 75-33 119-33s87 12 119 33c34 22 53 53 53 86 0 0 0 0 0 0z m-828 385l132-368h-265l133 368z m0-472c-67 0-125 31-137 71h274c-13-40-71-71-137-71z m467-275v-19h-278v19c0 10 8 18 18 18h242c10 0 18-8 18-18z m-157 50v174c0 11 8 19 18 19s18-8 18-19v-174h-36z m18 225c-10 0-18 8-18 19s8 18 18 18 18-8 18-18-8-19-18-19z m0 570c0 0 0 0 0 0s0 0 0 0c-10 0-18 9-18 19 0 10 8 18 18 18 0 0 0 0 0 0s0 0 0 0c10 0 18-8 18-18 0-10-8-19-18-19z m461-466h-265l132 368 133-368z m-133-104c-66 0-124 31-136 71h273c-12-40-70-71-137-71z" horiz-adv-x="1000" />

<glyph glyph-name="briefcase" unicode="&#xe826;" d="M880 660h-191v70c0 47-38 85-85 85h-208c-47 0-85-38-85-85v-70h-191c-66 0-120-54-120-120v-276c0-28 14-53 35-69 0 0 0 0 0 0v-191c0-66 53-119 119-119h692c66 0 119 53 119 119v191c0 0 0 0 0 0 21 16 35 41 35 69v276c0 66-54 120-120 120z m-537 70c0 29 24 53 53 53h208c29 0 53-24 53-53v-70h-37v70c0 9-7 16-16 16h-208c-9 0-16-7-16-16v-70h-37v70z m70-70v54h175v-54h-175z m520-656c0-48-39-87-87-87h-692c-48 0-87 39-87 87v176c6-1 12-2 18-2h88v-18c0-28 23-51 51-51h34c28 0 51 23 51 51v18h382v-18c0-28 23-51 51-51h35c27 0 50 23 50 51v18h88c6 0 12 1 18 2v-176z m-656 207h-72v18c0 10 8 18 19 18h34c10 0 19-8 19-18v-18z m0-33v-18c0-10-9-18-19-18h-34c-11 0-19 8-19 18v18h72z m518 33h-71v18c0 10 8 18 18 18h35c10 0 18-8 18-18v-18z m0-33v-18c0-10-8-18-18-18h-35c-10 0-18 8-18 18v18h71z m173 86c0-30-24-53-53-53h-88v18c0 28-23 51-50 51h-35c-28 0-51-23-51-51v-18h-382v18c0 28-23 51-51 51h-34c-28 0-51-23-51-51v-18h-88c-29 0-53 23-53 53v276c0 48 40 88 88 88h760c48 0 88-40 88-88v-276z" horiz-adv-x="1000" />

<glyph glyph-name="briefcase-1" unicode="&#xe827;" d="M880 634h-1v18c0 19-15 34-33 34h-52c-19 0-34-15-34-34v-18h-71v70c0 47-38 86-85 86h-208c-47 0-85-39-85-86v-70h-71v18c0 19-15 34-34 34h-52c-18 0-33-15-33-34v-18h-1c-66 0-120-54-120-120v-484c0-66 54-120 120-120h760c66 0 120 54 120 120v484c0 66-54 120-120 120z m-87 18c0 1 0 2 1 2h52c0 0 1-1 1-2v-18h-54v18z m-450 52c0 29 24 53 53 53h208c29 0 53-24 53-53v-70h-37v70c0 9-7 16-16 16h-208c-9 0-16-7-16-16v-70h-37v70z m70-70v54h175v-54h-175z m-260 18c0 1 1 2 1 2h52c1 0 1-1 1-2v-18h-54v18z m815-622c0-48-40-87-88-87h-760c-48 0-88 39-88 87v484c0 48 40 88 88 88h760c48 0 88-40 88-88v-484z m-105 258h-726c-9 0-16-7-16-16s7-16 16-16h726c9 0 16 7 16 16s-7 16-16 16z m0 173h-726c-9 0-16-7-16-16s7-16 16-16h726c9 0 16 7 16 16s-7 16-16 16z m0-345h-726c-9 0-16-8-16-16s7-17 16-17h726c9 0 16 8 16 17s-7 16-16 16z" horiz-adv-x="1000" />

<glyph glyph-name="calendar" unicode="&#xe828;" d="M915 798h-53v19c0 9-7 16-16 16s-17-7-17-16v-19h-54v19c0 9-7 16-16 16s-16-7-16-16v-19h-54v19c0 9-7 16-16 16s-16-7-16-16v-19h-54v19c0 9-8 16-17 16s-16-7-16-16v-19h-54v19c0 9-7 16-16 16s-16-7-16-16v-19h-54v19c0 9-7 16-16 16s-17-7-17-16v-19h-54v19c0 9-7 16-16 16s-16-7-16-16v-19h-54v19c0 9-7 16-16 16s-16-7-16-16v-19h-54v19c0 9-8 16-17 16s-16-7-16-16v-19h-53c-47 0-85-38-85-85v-622c0-47 38-85 85-85h187c43-83 129-139 228-139s185 56 229 139h186c47 0 85 38 85 85v622c0 47-38 85-85 85z m-830-32h53v-19c0-8 8-16 16-16s17 8 17 16v19h54v-19c0-8 7-16 16-16s16 8 16 16v19h54v-19c0-8 7-16 16-16s16 8 16 16v19h54v-19c0-8 8-16 17-16s16 8 16 16v19h54v-19c0-8 7-16 16-16s16 8 16 16v19h54v-19c0-8 7-16 16-16s17 8 17 16v19h54v-19c0-8 7-16 16-16s16 8 16 16v19h54v-19c0-8 7-16 16-16s16 8 16 16v19h54v-19c0-8 8-16 17-16s16 8 16 16v19h53c29 0 53-24 53-53v-18h-936v18c0 29 24 53 53 53z m431-866v35c0 9-7 16-16 16s-16-7-16-16v-35c-112 8-201 98-209 209h35c9 0 16 7 16 16s-7 17-16 17h-35c8 111 97 201 209 209v-36c0-8 7-16 16-16s16 8 16 16v36c112-8 201-98 209-209 0 0 0 0 0 0h-35c-9 0-16-8-16-17s7-16 16-16h35c0 0 0 0 0 0-8-111-97-201-209-209z m399 138h-172c10 27 15 57 15 87 0 45-11 86-31 122h15c9 0 16 8 16 17s-7 16-16 16h-35c0 0 0 0 0 0-47 63-122 104-207 104s-160-41-207-104c0 0 0 0 0 0h-35c-9 0-16-7-16-16s7-17 16-17h15c-20-36-31-77-31-122 0-30 5-60 15-87h-172c-29 0-53 24-53 53v571h936v-571c0-29-24-53-53-53z m-588 415h-69c-9 0-16-8-16-17s7-16 16-16h69c9 0 16 7 16 16s-7 17-16 17z m-138 0h-69c-9 0-16-8-16-17s7-16 16-16h69c9 0 16 7 16 16s-7 17-16 17z m276 0h-69c-9 0-16-8-16-17s7-16 16-16h69c9 0 17 7 17 16s-8 17-17 17z m277 0h-69c-9 0-16-8-16-17s7-16 16-16h69c9 0 16 7 16 16s-7 17-16 17z m138 0h-69c-9 0-16-8-16-17s7-16 16-16h69c9 0 16 7 16 16s-7 17-16 17z m-276 0h-69c-9 0-17-8-17-17s8-16 17-16h69c9 0 16 7 16 16s-7 17-16 17z m-277 86h-69c-9 0-16-7-16-16s7-16 16-16h69c9 0 16 7 16 16s-7 16-16 16z m-138 0h-69c-9 0-16-7-16-16s7-16 16-16h69c9 0 16 7 16 16s-7 16-16 16z m276 0h-69c-9 0-16-7-16-16s7-16 16-16h69c9 0 17 7 17 16s-8 16-17 16z m277 0h-69c-9 0-16-7-16-16s7-16 16-16h69c9 0 16 7 16 16s-7 16-16 16z m138 0h-69c-9 0-16-7-16-16s7-16 16-16h69c9 0 16 7 16 16s-7 16-16 16z m-276 0h-69c-9 0-17-7-17-16s8-16 17-16h69c9 0 16 7 16 16s-7 16-16 16z m-277-173h-69c-9 0-16-7-16-16s7-16 16-16h69c9 0 16 7 16 16s-7 16-16 16z m-138 0h-69c-9 0-16-7-16-16s7-16 16-16h69c9 0 16 7 16 16s-7 16-16 16z m553 0h-69c-9 0-16-7-16-16s7-16 16-16h69c9 0 16 7 16 16s-7 16-16 16z m138 0h-69c-9 0-16-7-16-16s7-16 16-16h69c9 0 16 7 16 16s-7 16-16 16z m-691-86h-69c-9 0-16-7-16-16s7-17 16-17h69c9 0 16 8 16 17s-7 16-16 16z m691 0h-69c-9 0-16-7-16-16s7-17 16-17h69c9 0 16 8 16 17s-7 16-16 16z m-691-87h-69c-9 0-16-7-16-16s7-16 16-16h69c9 0 16 7 16 16s-7 16-16 16z m691 0h-69c-9 0-16-7-16-16s7-16 16-16h69c9 0 16 7 16 16s-7 16-16 16z m-248 42c7 6 7 17 0 23-6 6-16 6-22 0l-87-87c-7 3-15 5-23 5-22 0-41-14-48-34h-21c-9 0-16-8-16-17s7-16 16-16h21c1-2 2-4 3-6l-29-28c-6-7-6-17 0-23 3-4 8-5 12-5s8 1 11 5l29 28c6-3 14-5 22-5 22 0 41 14 48 34h73c9 0 16 7 16 16s-7 17-16 17h-73c-1 2-1 4-2 6l86 87z m-132-128c-10 0-18 8-18 18s8 19 18 19 18-8 18-19-8-18-18-18z" horiz-adv-x="1000" />

<glyph glyph-name="calendar-1" unicode="&#xe829;" d="M915 729h-53v18c0 9-7 17-16 17s-17-8-17-17v-18h-54v18c0 9-7 17-16 17s-16-8-16-17v-18h-54v18c0 9-7 17-16 17s-16-8-16-17v-18h-54v18c0 9-8 17-17 17s-16-8-16-17v-18h-54v18c0 9-7 17-16 17s-16-8-16-17v-18h-54v18c0 9-7 17-16 17s-17-8-17-17v-18h-54v18c0 9-7 17-16 17s-16-8-16-17v-18h-54v18c0 9-7 17-16 17s-16-8-16-17v-18h-54v18c0 9-8 17-17 17s-16-8-16-17v-18h-53c-47 0-85-38-85-85v-622c0-47 38-86 85-86h830c47 0 85 39 85 86v622c0 47-38 85-85 85z m-830-32h53v-19c0-9 8-16 16-16s17 7 17 16v19h54v-19c0-9 7-16 16-16s16 7 16 16v19h54v-19c0-9 7-16 16-16s16 7 16 16v19h54v-19c0-9 8-16 17-16s16 7 16 16v19h54v-19c0-9 7-16 16-16s16 7 16 16v19h54v-19c0-9 7-16 16-16s17 7 17 16v19h54v-19c0-9 7-16 16-16s16 7 16 16v19h54v-19c0-9 7-16 16-16s16 7 16 16v19h54v-19c0-9 8-16 17-16s16 7 16 16v19h53c29 0 53-24 53-53v-19h-936v19c0 29 24 53 53 53z m830-728h-830c-29 0-53 23-53 53v571h936v-571c0-30-24-53-53-53z m-726 451h104c9 0 16 7 16 16s-7 17-16 17h-104c-9 0-16-8-16-17s7-16 16-16z m0-155h104c9 0 16 7 16 16s-7 16-16 16h-104c-9 0-16-7-16-16s7-16 16-16z m276-123h-103c-9 0-16-8-16-17s7-16 16-16h103c9 0 17 7 17 16s-8 17-17 17z m0 155h-103c-9 0-16-7-16-16s7-16 16-16h103c9 0 17 7 17 16s-8 16-17 16z m70 123h103c9 0 16 7 16 16s-7 17-16 17h-103c-9 0-17-8-17-17s8-16 17-16z m103-278h-103c-9 0-17-8-17-17s8-16 17-16h103c9 0 16 7 16 16s-7 17-16 17z m173 311h-104c-9 0-16-8-16-17s7-16 16-16h104c9 0 16 7 16 16s-7 17-16 17z m0-311h-104c-9 0-16-8-16-17s7-16 16-16h104c9 0 16 7 16 16s-7 17-16 17z m0 155h-104c-9 0-16-7-16-16s7-16 16-16h104c9 0 16 7 16 16s-7 16-16 16z m-357 203l-58-58-23 23c-6 6-16 6-23 0-6-6-6-16 0-23l35-34c3-3 7-5 11-5s9 2 12 5l69 69c6 6 6 16 0 23-6 6-17 6-23 0z m173-156l-58-57-23 23c-6 6-17 6-23 0-6-7-6-17 0-23l35-35c3-3 7-5 11-5s8 2 12 5l69 69c6 7 6 17 0 23-7 7-17 7-23 0z m-346-155l-57-58-24 23c-6 6-16 6-22 0-7-6-7-16 0-23l34-34c3-3 7-5 12-5s8 2 11 5l69 69c6 6 6 16 0 23-6 6-16 6-23 0z" horiz-adv-x="1000" />

<glyph glyph-name="charging" unicode="&#xe82a;" d="M867 339l-59 118c-5 11-7 23-4 34l12 63c0 1 1 2 1 3 0 162-132 293-293 293h-69c-181 0-327-147-327-327 0-90 21-165 42-237 22-74 44-151 44-247 0-6 3-11 8-14l277-169c6-4 13-6 20-6 7 0 13 2 19 5 12 7 19 19 19 33v65c0 48 40 87 88 87h57c44 0 82 35 85 78l11 134 43 17c13 6 23 16 28 29 5 14 4 28-2 41z m-28-29c-2-5-6-9-10-11l-52-20c-6-3-10-8-10-14l-12-144c-2-27-26-48-53-48h-57c-66 0-120-54-120-120v-65c0-3-2-4-3-5-1 0-3-1-6 0l-270 165c-1 96-23 173-45 247-21 73-41 142-41 228 0 162 132 295 295 295h69c143 0 259-116 260-259l-12-62c-4-18-1-38 7-54l59-118c2-5 3-10 1-15z m-195 296v3c0 28-23 51-51 51h-111l5 13c3 8-1 17-9 21-9 3-18-2-21-10l-9-24h-114c-28 0-51-23-51-51v-138c0-28 23-51 51-51h128l-5-12c-3-9 1-18 9-21 2-1 4-1 6-1 7 0 13 4 15 10l9 24h97c28 0 51 23 51 51v4c20 7 34 26 34 48v34c0 23-14 42-34 49z m-310-153c-10 0-19 8-19 18v138c0 10 9 19 19 19h102l-31-82c-2-5-1-11 2-15s8-7 13-7h81l-27-71h-140z m312 70c0-10-8-18-18-18-9 0-17-8-17-17v-17c0-10-8-18-18-18h-85l31 81c2 5 1 11-2 15s-8 7-13 7h-80l26 72h123c10 0 18-9 18-19v-17c0-9 8-16 17-16 10 0 18-8 18-19v-34h0z" horiz-adv-x="1000" />

<glyph glyph-name="clock" unicode="&#xe82b;" d="M32 350c0 125 49 242 137 331 89 88 206 137 331 137 126 0 246-51 334-141h-57c-9 0-17-7-17-16s8-16 17-16h103c9 0 16 7 16 16v104c0 9-7 16-16 16s-16-7-16-16v-72c-94 100-225 157-364 157-134 0-259-52-354-146s-146-220-146-354c0-88 23-174 67-250 3-5 8-8 14-8 3 0 6 1 8 2 8 5 10 15 6 22-41 71-63 152-63 234z m901 250c-4 8-14 10-22 6-8-4-10-14-6-22 41-71 63-152 63-234 0-125-49-242-137-331-89-88-206-137-331-137-126 0-246 51-334 141h58c9 0 16 7 16 16s-7 16-16 16h-104c-9 0-16-7-16-16v-104c0-9 7-16 16-16s16 7 16 16v72c95-100 226-157 364-157 134 0 259 52 354 146s146 220 146 354c0 88-23 174-67 250z m-433 112c-199 0-362-162-362-362 0 0 0 0 0 0s0 0 0 0c0-199 163-362 362-362 200 0 362 163 362 362s-162 362-362 362z m16-691v35c0 9-7 17-16 17s-16-8-16-17v-35c-169 8-305 144-313 313h35c9 0 17 7 17 16s-8 16-17 16h-35c8 169 144 305 313 313v-35c0-9 7-16 16-16s16 7 16 16v35c169-8 305-144 313-313h-35c-9 0-16-7-16-16s7-16 16-16h35c-8-169-144-305-313-313z m191 345h-141c-2 7-4 13-8 19l152 152c7 7 7 17 0 23-6 7-16 7-23 0l-152-152c-10 6-22 10-35 10-32 0-59-22-66-52h-38c-9 0-16-7-16-16s7-16 16-16h38c2-7 4-13 8-19l-40-40c-6-6-6-16 0-23 3-3 8-5 12-5s8 2 11 5l40 40c10-6 22-10 35-10 32 0 59 22 66 52h141c9 0 17 7 17 16s-8 16-17 16z m-207-52c-20 0-36 16-36 36s16 36 36 36 36-16 36-36-16-36-36-36z" horiz-adv-x="1000" />

<glyph glyph-name="clock-1" unicode="&#xe82c;" d="M862 129l-158 40c-1 1-2 2-2 2l-52 52c-3 3-6 4-9 5 110 53 186 165 186 295 0 180-147 327-327 327s-327-147-327-327c0-130 76-242 186-295-3-1-6-2-9-5l-51-52c-1 0-2-1-2-2l-159-40c-66-16-103-57-103-115v-113c0-28 22-51 50-51h830c28 0 50 23 50 51v113c0 58-36 99-103 115z m-192 28c-12-22-43-77-71-128 0 0-1-1-1-1 0 0-1 0-1 0l-36 24c0 0 0 0 0 0l-36 24 113 113 32-32z m-187-203h34c2 0 3 0 4 0l12-72h-66l12 72c1 0 3 0 4 0z m53 50c0-10-9-18-19-18h-34c-10 0-19 8-19 18v26l36 24 36-24v-26z m-331 519c0 162 132 295 295 295s295-133 295-295-132-295-295-295-295 132-295 295z m295-327c44 0 85 8 123 24l-123-123-123 123c38-16 79-24 123-24z m-138-7l113-113-36-24c0 0 0 0 0 0l-36-24c0 0 0 0-1 0 0 0 0 1-1 1-28 51-59 106-71 128l32 32z m-295-288v113c0 43 27 71 79 84l158 39c9-16 29-51 69-124 5-8 12-14 21-16 3-1 6-1 8-1 7 0 13 2 19 5l11 8v-5c0-14 6-28 17-37l-15-85h-211v88c0 9-8 16-17 16s-16-7-16-16v-88h-105c-10 0-18 9-18 19z m866 0c0-10-8-19-18-19h-105v88c0 9-7 16-16 16s-16-7-16-16v-88h-212l-14 85c10 9 16 23 16 37v5l11-8c6-3 12-5 19-5 2 0 5 0 8 1 9 2 16 8 21 16 40 73 60 108 69 124l158-39c52-13 79-41 79-84v-113z m-175 622c0 142-116 258-258 258s-258-116-258-258 116-258 258-258 258 116 258 258z m-483-16h35c9 0 16 7 16 16s-7 16-16 16h-35c8 112 97 201 209 209v-35c0-9 7-16 16-16s16 7 16 16v35c112-8 201-97 209-209 0 0 0 0 0 0h-35c-9 0-16-7-16-16s7-16 16-16h35c0 0 0 0 0 0-8-112-97-201-209-209v35c0 9-7 16-16 16s-16-7-16-16v-35c-112 8-201 97-209 209z m203-30c6-3 14-5 22-5 22 0 41 15 48 35h73c9 0 16 7 16 16s-7 16-16 16h-73c-1 2-1 4-2 6l86 87c7 7 7 17 0 23-6 7-16 7-22 0l-87-87c-7 4-15 6-23 6-22 0-41-15-48-35h-21c-9 0-16-7-16-16s7-16 16-16h21c1-3 2-5 3-7l-29-28c-6-6-6-17 0-23 3-3 8-5 12-5s8 2 11 5l29 28z m22 64c10 0 18-8 18-18s-8-19-18-19-18 9-18 19 8 18 18 18z" horiz-adv-x="1000" />

<glyph glyph-name="coffee-cup" unicode="&#xe82d;" d="M794 349c-12 0-24-2-36-5v6c0 28-23 51-51 51h-587c-28 0-51-23-51-51v-242c0-70 33-139 87-181v-26c0-28 22-51 50-51h415c28 0 51 23 51 51v26c38 30 65 73 78 120 14-4 29-7 44-7 75 0 137 62 137 137v35c0 75-62 137-137 137z m-36-137c0 19 16 35 36 35s35-16 35-35v-35c0-19-16-35-35-35s-36 16-36 35v35z m-137-330h-415c-10 0-18 9-18 19v18h451v-18c0-10-8-19-18-19z m105 226c0-61-29-121-76-157h-473c-47 36-75 96-75 157v242c0 10 8 18 18 18h587c11 0 19-8 19-18v-138-35-69z m173 69c0-57-47-104-105-104-13 0-26 2-38 6 2 10 2 20 2 29v11c11-6 23-10 36-10 37 0 68 31 68 68v35c0 37-31 68-68 68-13 0-25-4-36-10v40c12 4 23 7 36 7 58 0 105-47 105-105v-35z m-496 352c-18-16-40-36-40-75 0-9 7-16 16-16s16 7 16 16c0 24 13 36 30 51 17 16 39 37 39 75 0 39-22 59-39 76-17 15-30 27-30 51 0 25 13 37 30 52 17 16 39 36 39 75 0 9-7 16-16 16s-16-7-16-16c0-25-13-37-29-52-18-16-40-36-40-75s22-59 40-75c16-15 29-27 29-52 0-24-13-36-29-51z m103 0c-17-16-39-36-39-75 0-9 7-16 16-16s16 7 16 16c0 24 13 36 29 51 18 16 40 37 40 75 0 39-22 59-40 76-16 15-29 27-29 51 0 9-7 16-16 16s-16-7-16-16c0-39 22-59 39-75 17-15 30-27 30-52 0-24-13-36-30-51z m-207 0c-18-16-40-36-40-75 0-9 7-16 16-16 9 0 17 7 17 16 0 24 13 36 29 51 18 16 40 37 40 75 0 39-22 59-40 76-16 15-29 27-29 51 0 9-8 16-17 16s-16-7-16-16c0-39 22-59 40-75 16-15 29-27 29-52 0-24-13-36-29-51z" horiz-adv-x="1000" />

<glyph glyph-name="compass" unicode="&#xe82e;" d="M854 704c-95 94-220 146-354 146s-259-52-354-146-146-220-146-354 52-259 146-354 220-146 354-146 259 52 354 146 146 220 146 354-52 259-146 354z m-23-685c-89-88-206-137-331-137s-242 49-331 137c-88 89-137 206-137 331s49 242 137 331c89 88 206 137 331 137s242-49 331-137c88-89 137-206 137-331s-49-242-137-331z m-331 762c-238 0-431-193-431-431s193-431 431-431 431 193 431 431-193 431-431 431z m16-829v70c0 9-7 16-16 16s-16-7-16-16v-70c-207 8-374 175-382 382h70c9 0 16 7 16 16s-7 16-16 16h-70c8 207 175 374 382 382v-70c0-9 7-16 16-16s16 7 16 16v70c207-8 374-175 382-382h-70c-9 0-16-7-16-16s7-16 16-16h70c-8-207-175-374-382-382z m202 637l-311-138c-4-1-7-4-8-8l-138-311c-3-6-2-13 3-18 3-3 7-5 11-5 3 0 5 1 7 2l311 138c4 1 7 4 8 8l138 311c3 6 2 13-3 18-5 5-12 6-18 3z m-299-181l23-23c-6-10-10-22-10-35 0-37 31-68 68-68 13 0 25 4 35 10l23-23-251-112 112 251z m81-94c-20 0-36 16-36 36s16 36 36 36 36-16 36-36-16-36-36-36z m81-22l-23 23c6 10 10 22 10 35 0 38-30 68-68 68-13 0-25-4-35-10l-23 23 251 112-112-251z" horiz-adv-x="1000" />

<glyph glyph-name="cup" unicode="&#xe82f;" d="M863 695h-105v56c20 7 35 26 35 48 0 28-23 51-51 51h-484c-28 0-51-23-51-51 0-22 15-41 35-48v-56h-105c-18 0-33-15-33-34v-69c0-104 84-189 189-189 0 0 0 0 0 0 37-49 91-85 153-98-9-11-14-26-14-41 0-23 11-43 28-55-7-9-11-20-11-32v-138c0-29-23-53-53-53h-17-52c-18 0-33-15-33-33v-70c0-18 15-33 33-33h346c18 0 33 15 33 33v70c0 18-15 33-33 33h-52-17c-29 0-53 24-53 53v138c0 12-4 23-11 32 17 12 28 32 28 55 0 15-5 30-14 41 62 13 116 49 153 98 0 0 0 0 0 0 105 0 189 85 189 189v69c0 19-15 34-33 34z m-605 123h484c10 0 18-9 18-19s-8-18-18-18h-484c-10 0-18 8-18 18s8 19 18 19z m-122-226v69c0 1 1 1 1 1h105v-105c0-43 11-84 30-120-77 10-136 76-136 155z m537-638c0 0 1-1 1-1v-70c0 0-1-1-1-1h-346c0 0-1 1-1 1v70c0 0 1 1 1 1h346z m-155 223v-138c0-20 7-38 19-53h-74c12 15 19 33 19 53v138c0 10 8 19 18 19s18-9 18-19z m18 87c0-20-16-36-36-36s-36 16-36 36 16 35 36 35 36-16 36-35z m-36 68c-124 0-226 101-226 225v192h452v-192c0-124-101-225-226-225z m364 260c0-79-59-145-136-155 19 36 30 77 30 120v105h105c0 0 1 0 1-1v-69z" horiz-adv-x="1000" />

<glyph glyph-name="distribution" unicode="&#xe830;" d="M758 523c0 142-116 258-258 258s-258-116-258-258 116-258 258-258 258 116 258 258z m-483-16h35c9 0 16 7 16 16s-7 16-16 16h-35c8 112 97 201 209 209v-35c0-9 7-16 16-16s16 7 16 16v35c112-8 201-97 209-209 0 0 0 0 0 0h-35c-9 0-16-7-16-16s7-16 16-16h35c0 0 0 0 0 0-8-112-97-201-209-209v35c0 9-7 16-16 16s-16-7-16-16v-35c-112 8-201 97-209 209z m203-30c6-3 14-5 22-5 22 0 41 15 48 35h73c9 0 16 7 16 16s-7 16-16 16h-73c-1 2-1 4-2 6l86 87c7 7 7 17 0 23-6 7-16 7-22 0l-87-87c-7 4-15 6-23 6-22 0-41-15-48-35h-21c-9 0-16-7-16-16s7-16 16-16h21c1-3 2-5 3-7l-29-28c-6-6-6-17 0-23 3-3 8-5 12-5s8 2 11 5l29 28z m22 64c10 0 18-8 18-18s-8-19-18-19-18 9-18 19 8 18 18 18z m328-555h-35v70c0 28-23 51-51 51h-226v89c173 8 311 152 311 327 0 180-147 327-327 327s-327-147-327-327c0-175 138-319 311-327v-89h-226c-28 0-51-23-51-51v-70h-35c-19 0-34-15-34-33v-70c0-18 15-33 34-33h103c19 0 34 15 34 33v70c0 18-15 33-34 33h-35v70c0 10 8 19 18 19h226v-89h-36c-18 0-33-15-33-33v-70c0-18 15-33 33-33h104c18 0 33 15 33 33v70c0 18-15 33-33 33h-36v89h226c10 0 18-9 18-19v-70h-35c-19 0-34-15-34-33v-70c0-18 15-33 34-33h103c19 0 34 15 34 33v70c0 18-15 33-34 33z m-623 537c0 162 132 295 295 295s295-133 295-295-132-295-295-295-295 132-295 295z m72-570v-70c0 0-1-1-2-1h-103c-1 0-1 1-1 1v70c0 0 0 1 1 1h103c1 0 2-1 2-1z m276 0v-70c0 0-1-1-1-1h-104c0 0-1 1-1 1v70c0 0 1 1 1 1h104c0 0 1-1 1-1z m276-70c0 0 0-1-1-1h-103c-1 0-1 1-1 1v70c0 0 0 1 1 1h103c1 0 1-1 1-1v-70z" horiz-adv-x="1000" />

<glyph glyph-name="document" unicode="&#xe831;" d="M874 655l-190 190c-3 3-7 5-11 5h-501c-28 0-51-23-51-51v-898c0-28 23-51 51-51h656c28 0 51 23 51 51v743c0 4-2 8-5 11z m-185 140l135-135h-117c-10 0-18 8-18 18v117z m139-913h-656c-10 0-19 9-19 19v898c0 10 9 19 19 19h485v-140c0-28 22-50 50-50h140v-727c0-10-9-19-19-19z m-587 832h121c9 0 16 7 16 16s-7 16-16 16h-121c-9 0-16-7-16-16s7-16 16-16z m0-86h190c9 0 16 7 16 16s-7 16-16 16h-190c-9 0-16-7-16-16s7-16 16-16z m139-122c0-9 7-17 16-17h208c9 0 16 8 16 17s-7 16-16 16h-208c-9 0-16-7-16-16z m379-71h-518c-9 0-16-7-16-16s7-16 16-16h518c9 0 16 7 16 16s-7 16-16 16z m-207-311h-121c-9 0-16-7-16-16s7-16 16-16h121c9 0 16 7 16 16s-7 16-16 16z m0-86h-121c-9 0-16-7-16-16s7-16 16-16h121c9 0 16 7 16 16s-7 16-16 16z m207 311h-518c-9 0-16-7-16-16s7-16 16-16h518c9 0 16 7 16 16s-7 16-16 16z m0-86h-518c-9 0-16-8-16-17s7-16 16-16h518c9 0 16 7 16 16s-7 17-16 17z m-69-121c-47 0-85-39-85-86s38-85 85-85 85 38 85 85-38 86-85 86z m0-139c-29 0-53 24-53 53s24 53 53 53 53-24 53-53-24-53-53-53z m0 82c-16 0-29-13-29-29s13-29 29-29 29 13 29 29-13 29-29 29z" horiz-adv-x="1000" />

<glyph glyph-name="coffee-cup-1" unicode="&#xe832;" d="M782 474h-63c-11 0-22-1-32-4v68c0 17-14 30-30 30h-533c-16 0-30-13-30-30v-548c0-38 28-70 64-76 6-36 38-64 76-64h313c38 0 70 28 76 64 36 6 64 38 64 76v52c10-3 21-4 32-4h63c68 0 124 56 124 124v188c0 69-56 124-124 124z m-95-124c0 18 14 32 32 32h63c18 0 32-14 32-32v-188c0-18-14-32-32-32h-63c-18 0-32 14-32 32v188z m-140-471h-313c-21 0-40 14-46 34h405c-7-20-25-34-46-34z m111 111c0-27-22-48-48-48h-439c-26 0-48 21-48 48v548c0 0 1 1 1 1h533c0 0 1-1 1-1v-548z m219 172c0-52-43-95-95-95h-63c-11 0-22 2-32 6v37c9-6 20-9 32-9h63c34 0 61 27 61 61v188c0 34-27 62-61 62h-63c-12 0-23-4-32-9v36c10 4 21 6 32 6h63c52 0 95-43 95-95v-188z m-517 454c0-8 7-14 15-14s14 6 14 14c0 13 5 19 13 27 8 10 19 23 19 46 0 24-11 36-19 46-8 9-13 14-13 27s5 19 13 27c8 10 19 23 19 46 0 8-7 15-15 15s-15-7-15-15c0-12-4-18-12-27-8-10-19-22-19-46s11-36 19-46c8-8 12-14 12-27 0-13-4-18-12-27-8-10-19-22-19-46z m78 0c0-8 7-14 15-14s15 6 15 14c0 13 5 19 12 27 8 10 19 23 19 46 0 24-11 36-19 46-7 9-12 14-12 27 0 8-7 15-15 15s-15-7-15-15c0-23 11-36 20-46 7-8 12-14 12-27 0-13-5-18-12-27-9-10-20-22-20-46z m-156 0c0-8 6-14 15-14s14 6 14 14c0 13 5 19 12 27 9 10 20 23 20 46 0 24-11 36-20 46-7 9-12 14-12 27 0 8-6 15-14 15s-15-7-15-15c0-23 10-36 19-46 7-8 12-14 12-27 0-13-5-18-12-27-9-10-19-22-19-46z m328-110c-8 0-15-7-15-15v-47c0-8 7-15 15-15s14 7 14 15v47c0 8-6 15-14 15z m0-110c-8 0-15-7-15-15v-234c0-9 7-15 15-15s14 6 14 15v234c0 8-6 15-14 15z" horiz-adv-x="1000" />

<glyph glyph-name="cogwheel" unicode="&#xe833;" d="M954 443h-43c-10 47-29 91-54 132l30 30c18 18 18 47 0 65l-67 67c-8 9-20 13-32 13s-24-4-33-13l-30-30c-41 25-85 44-132 54v43c0 25-21 46-46 46h-94c-25 0-46-21-46-46v-43c-47-10-91-29-132-54l-30 30c-9 9-20 13-33 13s-24-4-32-13l-67-67c-18-18-18-47 0-65l30-30c-25-41-44-85-54-132h-43c-25 0-46-21-46-46v-94c0-25 21-46 46-46h43c10-47 29-91 54-132l-30-30c-8-9-13-20-13-33s5-24 13-32l67-67c8-8 20-13 32-13s24 5 33 13l30 30c41-25 85-44 132-54v-43c0-25 21-46 46-46h94c25 0 46 21 46 46v43c47 10 91 29 132 54l30-30c9-9 21-13 33-13s24 4 32 13l67 67c9 8 13 20 13 32s-4 24-13 33l-30 30c25 41 44 85 54 132h43c25 0 46 21 46 46v94c0 25-21 46-46 46z m17-140c0-9-8-17-17-17h-55c-7 0-13-5-14-11-10-52-30-100-59-144-4-6-3-13 1-18l39-39c3-3 5-7 5-12 0-4-2-8-5-12l-66-66c-4-3-8-5-12-5s-9 2-12 5l-38 39c-5 5-13 5-19 1-44-29-92-49-143-59-7-1-12-7-12-14v-55c0-9-8-17-17-17h-94c-9 0-17 8-17 17v55c0 7-5 13-11 14-52 10-100 30-144 59-2 2-5 3-8 3-4 0-8-2-10-4l-39-39c-3-3-7-5-12-5s-8 2-12 5l-66 66c-3 4-5 8-5 12 0 5 2 9 5 12l39 39c5 5 5 12 1 18-29 44-49 92-59 144-1 6-7 11-14 11h-55c-9 0-17 8-17 17v94c0 9 8 17 17 17h55c7 0 13 5 14 12 10 51 30 99 59 143 4 6 4 14-1 19l-39 38c-6 7-6 17 0 24l66 66c4 3 8 5 12 5s9-2 12-5l39-39c5-4 12-5 18-1 44 29 92 49 144 59 6 1 11 7 11 14v55c0 9 8 17 17 17h94c9 0 17-8 17-17v-55c0-7 5-13 12-14 51-10 99-30 143-59 6-4 14-3 19 1l38 39c3 3 7 5 12 5s8-2 12-5l66-66c7-7 7-17 0-24l-39-38c-4-5-5-13-1-19 29-44 49-92 59-143 1-7 7-12 14-12h55c9 0 17-8 17-17v-94z m-738 47c0 147 120 267 267 267 36 0 71-7 104-21 7-3 16 1 19 8 3 7 0 16-8 19-36 16-75 24-115 24-163 0-296-133-296-297 0-68 23-134 66-186 2-4 7-6 11-6 3 0 6 1 9 3 6 6 7 15 2 21-38 47-59 107-59 168z m521 123c-7-3-11-12-8-19 14-33 21-68 21-104 0-147-120-267-267-267-61 0-121 21-168 59-6 5-15 4-21-2-5-6-4-15 3-21 52-42 118-65 186-65 164 0 297 133 297 296 0 40-8 79-24 115-3 8-11 11-19 8z m-86 85c15-12 28-25 40-40 3-4 7-6 11-6 4 0 7 2 9 4 7 5 8 14 3 20-13 17-28 32-45 45-6 5-15 4-20-3-5-6-4-15 2-20z m-168 26c-129 0-234-105-234-234s105-234 234-234 234 105 234 234-105 234-234 234z m0-438c-113 0-204 91-204 204s91 205 204 205 205-92 205-205-92-204-205-204z" horiz-adv-x="1000" />

<glyph glyph-name="coins" unicode="&#xe834;" d="M439 721c17-6 38-10 61-10s44 4 61 10c28 12 32 28 32 36 0 8-7 15-15 15-8 0-14-7-14-15-3-5-24-17-64-17-39 0-60 12-63 17 3 5 24 17 63 17 8 0 15 6 15 14s-7 15-15 15c-23 0-44-4-61-10-28-11-32-27-32-36s4-24 32-36z m343-247c-53 0-98-15-126-38v321c0 52-69 93-156 93s-156-41-156-93v-195c-28 23-73 38-126 38-87 0-155-41-155-93v-564c0-52 68-93 155-93 63 0 117 21 141 53 25-32 78-53 141-53s116 21 141 53c25-32 78-53 141-53 3 0 5 0 8 0 0 0 0 0 0 0 36 1 67 9 92 21 2 1 3 2 4 2 1 1 1 1 2 1 1 1 3 2 4 3 0 0 1 0 1 0 1 1 3 2 4 3 0 0 0 0 0 0 2 1 4 2 5 3 0 0 0 0 0 1 2 1 3 2 5 3 0 0 0 0 0 0 2 1 3 2 4 3 0 1 0 1 1 1 1 1 2 2 3 3 0 0 0 1 1 1 1 1 1 2 2 2 1 1 1 1 1 2 1 1 2 1 3 2 0 1 0 1 1 2 1 1 1 2 2 3 0 0 1 1 1 2 0 0 1 0 1 1 1 1 1 2 2 3 0 0 0 1 1 1 0 1 1 2 1 4 1 0 1 1 1 1 0 1 1 2 1 3 0 1 1 1 1 2 0 0 0 1 1 2 0 1 0 2 0 3 1 0 1 1 1 1 0 1 0 3 1 4 0 0 0 1 0 1 0 1 0 3 0 4 0 0 0 0 0 0 0 2 0 3 0 5v438c0 52-68 93-155 93z m0-29c75 0 126-33 126-64s-51-63-126-63-126 33-126 63 50 64 126 64z m-282 376c76 0 126-33 126-64s-50-64-126-64-126 33-126 64 51 64 126 64z m-282-251c76 0 126-33 126-63s-50-64-126-64-126 33-126 64 51 63 126 63z m0-691c-75 0-126 33-126 64v8c28-24 74-38 126-38 11 0 23 0 33 2 8 1 14 8 13 16-1 8-8 14-16 13-10-1-20-2-30-2-75 0-126 33-126 64v7c28-23 74-38 126-38 11 0 23 1 33 2 8 1 14 9 13 17s-8 13-16 12c-10-1-20-1-30-1-75 0-126 33-126 63v8c28-23 74-38 126-38 11 0 23 1 33 2 8 1 14 8 13 16-1 8-8 14-16 13-10-1-20-2-30-2-75 0-126 33-126 64v8c28-24 74-38 126-38 11 0 23 0 33 2 8 1 14 8 13 16s-8 14-16 13c-10-1-20-2-30-2-75 0-126 33-126 63v8c28-23 74-38 126-38 11 0 23 1 33 2 8 1 14 9 13 17-1 8-8 13-16 12-10-1-20-1-30-1-75 0-126 32-126 63v8c28-23 74-38 126-38 11 0 23 0 33 2 8 1 14 8 13 16s-8 14-16 13c-10-1-20-2-30-2-75 0-126 33-126 64v7c28-23 74-38 126-38 11 0 23 1 33 2 8 1 14 9 13 17-1 8-8 14-16 13-10-2-20-2-30-2-75 0-126 33-126 63v8c28-23 74-38 126-38 11 0 23 1 33 2 8 1 14 8 13 16s-8 14-16 13c-10-1-20-2-30-2-75 0-126 33-126 64v8c28-24 74-38 126-38s98 14 126 38v-8c0-16-14-33-38-45-8-4-11-13-7-20 3-5 8-8 13-8 2 0 5 0 7 1 10 5 18 11 25 17v-8c0-16-14-33-38-45-8-3-11-12-7-20 3-5 8-8 13-8 2 0 5 1 7 2 10 5 18 10 25 16v-7c0-17-14-33-38-45-8-4-11-13-7-20 3-5 8-8 13-8 2 0 5 0 7 1 10 5 18 11 25 17v-8c0-16-14-33-38-45-8-4-11-13-7-20 3-5 8-8 13-8 2 0 5 1 7 2 10 4 18 10 25 16v-8c0-16-14-32-38-45-8-3-11-12-7-19 3-6 8-9 13-9 2 0 5 1 7 2 10 5 18 10 25 16v-7c0-17-14-33-38-45-8-4-11-13-7-20 3-5 8-8 13-8 2 0 5 0 7 1 9 5 18 11 25 17v-8c0-16-14-33-38-45-8-4-11-12-7-20 3-5 8-8 13-8 2 0 5 1 7 2 9 5 18 10 25 16v-7c0-17-14-33-38-46-8-3-11-12-7-19 3-6 8-9 13-9 2 0 5 1 7 2 9 5 18 10 25 17v-8c0-31-50-64-126-64z m282 0c-75 0-126 33-126 64v8c28-24 74-38 126-38 11 0 22 0 33 2 8 1 14 8 13 16-1 8-8 14-16 13-10-1-20-2-30-2-75 0-126 33-126 64v7c28-23 74-38 126-38 11 0 22 1 33 2 8 1 14 9 13 17s-8 13-16 12c-10-1-20-1-30-1-75 0-126 33-126 63v8c28-23 74-38 126-38 11 0 22 1 33 2 8 1 14 8 13 16-1 8-8 14-16 13-10-1-20-2-30-2-75 0-126 33-126 64v8c28-24 74-38 126-38 11 0 22 0 33 2 8 1 14 8 13 16s-8 14-16 13c-10-1-20-2-30-2-75 0-126 33-126 63v8c28-23 74-38 126-38 11 0 22 1 33 2 8 1 14 9 13 17-1 8-8 13-16 12-10-1-20-1-30-1-75 0-126 32-126 63v8c28-23 74-38 126-38 11 0 22 0 33 2 8 1 14 8 13 16s-8 14-16 13c-10-1-20-2-30-2-75 0-126 33-126 64v7c28-23 74-38 126-38 11 0 22 1 33 2 8 1 14 9 13 17-1 8-8 14-16 13-10-2-20-2-30-2-75 0-126 33-126 63v8c28-23 74-38 126-38 11 0 22 1 33 2 8 1 14 8 13 16s-8 14-16 13c-10-1-20-2-30-2-75 0-126 33-126 64v8c28-24 74-38 126-38 11 0 22 0 33 2 8 1 14 8 13 16-1 8-8 14-16 13-10-1-20-2-30-2-75 0-126 33-126 64v7c28-23 74-38 126-38 11 0 22 1 33 2 8 1 14 9 13 17-1 8-8 13-16 12-10-1-20-1-30-1-75 0-126 33-126 63v8c28-23 74-38 126-38 11 0 22 1 33 2 8 1 14 8 13 16s-8 14-16 13c-10-1-20-2-30-2-75 0-126 33-126 64v8c28-24 74-38 126-38 11 0 22 0 33 2 8 1 14 8 13 16-1 8-8 14-16 13-10-2-20-2-30-2-75 0-126 33-126 63v8c28-23 74-38 126-38s98 15 126 38v-8c0-16-14-32-39-45-7-3-10-12-6-19 2-6 8-9 13-9 2 0 4 1 7 2 9 5 18 10 25 16v-7c0-17-14-33-39-45-7-4-10-13-6-20 2-5 8-8 13-8 2 0 4 0 7 1 9 5 18 11 25 17v-8c0-16-14-33-39-45-7-4-10-12-6-20 2-5 8-8 13-8 2 0 4 1 7 2 9 5 18 10 25 16v-7c0-17-14-33-39-46-7-3-10-12-6-19 2-5 8-8 13-8 2 0 4 0 7 1 9 5 18 11 25 17v-8c0-16-14-33-39-45-7-4-10-13-6-20 2-5 8-8 13-8 2 0 4 0 7 1 9 5 18 11 25 17v-8c0-16-14-33-39-45-7-3-10-12-6-20 2-5 8-8 13-8 2 0 4 1 7 2 9 5 18 10 25 16v-7c0-17-14-33-39-45-7-4-10-13-6-20 2-5 8-8 13-8 2 0 4 0 7 1 9 5 18 11 25 17v-8c0-16-14-33-39-45-7-4-10-13-6-20 2-5 8-8 13-8 2 0 4 1 7 2 9 4 18 10 25 16v-8c0-16-14-32-39-45-7-3-10-12-6-19 2-6 8-9 13-9 2 0 4 1 7 2 9 5 18 10 25 16v-7c0-17-14-33-39-45-7-4-10-13-6-20 2-5 8-8 13-8 2 0 4 0 7 1 9 5 18 11 25 17v-8c0-16-14-33-39-45-7-4-10-12-6-20 2-5 8-8 13-8 2 0 4 1 7 2 9 5 18 10 25 16v-7c0-17-14-33-39-46-7-3-10-12-6-19 2-6 8-9 13-9 2 0 4 1 6 2 10 5 19 10 26 17v-8c0-31-50-64-126-64z m156 64v8c28-24 73-38 126-38 11 0 22 0 33 2 8 1 14 8 13 16-1 8-9 14-17 13-9-1-19-2-29-2-76 0-126 33-126 64v7c28-23 73-38 126-38 11 0 22 1 33 2 8 1 14 9 13 17-1 8-9 13-17 12-9-1-19-1-29-1-76 0-126 33-126 63v8c28-23 73-38 126-38 11 0 22 1 33 2 8 1 14 8 13 16-1 8-9 14-17 13-9-1-19-2-29-2-76 0-126 33-126 64v8c28-24 73-38 126-38 11 0 22 0 33 2 8 1 14 8 13 16-1 8-9 14-17 13-9-1-19-2-29-2-76 0-126 33-126 63v8c28-23 73-38 126-38 11 0 22 1 33 2 8 1 14 9 13 17-1 8-9 13-17 12-9-1-19-1-29-1-76 0-126 32-126 63v8c28-23 73-38 126-38 11 0 22 0 33 2 8 1 14 8 13 16-1 8-9 14-17 13-9-1-19-2-29-2-76 0-126 33-126 64v7c28-23 73-38 126-38s98 15 126 38v-7c0-17-14-33-39-45-7-4-10-13-6-20 2-5 7-8 13-8 2 0 4 0 6 1 10 5 19 11 26 17v-8c0-16-14-33-39-45-7-4-10-13-6-20 2-5 7-8 13-8 2 0 4 1 6 2 10 4 19 10 26 16v-8c0-16-14-32-39-45-7-3-10-12-6-19 2-6 7-9 13-9 2 0 4 1 6 2 10 5 19 10 26 16v-7c0-17-14-33-39-45-7-4-10-13-6-20 2-5 7-8 13-8 2 0 4 0 6 1 10 5 19 11 26 17v-8c0-16-14-33-39-45-7-4-10-12-6-20 2-5 7-8 13-8 2 0 4 1 6 2 10 5 19 10 26 16v-7c0-17-14-33-39-46-7-3-10-12-6-19 2-6 7-9 13-9 2 0 4 1 6 2 10 5 19 10 26 17v-8c0-1 0-2 0-3 0-1 0-1 0-2 0 0 0-1-1-1 0-1 0-2 0-3 0 0 0 0 0 0-1-3-2-5-4-8 0 0 0 0 0 0-1-1-1-2-2-3 0 0 0 0 0 0-1-1-1-2-2-2 0-1 0-1-1-2 0 0 0 0-1-1 0-1-1-1-2-2 0 0 0 0 0 0-6-7-15-13-26-18 0-1-1-1-2-1-14-8-33-13-55-16 0 0 0 0-1 0-9-1-19-2-29-2-76 0-126 33-126 64z m65 403c17-7 38-11 61-11s44 4 61 11c28 11 32 27 32 35 0 8-7 15-15 15-8 0-14-6-15-14-2-5-23-17-63-17-39 0-61 11-64 16 3 6 25 17 64 17 8 0 15 7 15 15s-7 14-15 14c-23 0-44-3-61-10-28-11-32-27-32-36s4-24 32-35z m-564 125c17-7 39-10 61-10s45 3 61 10c28 11 32 27 32 36 0 8-6 14-14 14-8 0-15-6-15-14-2-5-24-17-64-17-39 0-60 11-63 17 3 5 24 16 63 16 8 0 15 7 15 15s-7 15-15 15c-22 0-44-4-61-11-28-11-32-27-32-35s4-25 32-36z" horiz-adv-x="1000" />

<glyph glyph-name="command" unicode="&#xe835;" d="M786 165c-1 0-2 1-2 1l-122 18c-20 13-22 44-22 79 39 40 63 96 63 157v5c30 27 47 65 47 105v94c0 77-63 140-140 140h-204c-29 0-54-21-60-48-54-6-95-52-95-108v-78c0-40 17-78 47-105v-5c0-61 24-117 62-157 0-35-2-66-22-79l-122-18c0 0-1-1-1-1-27-7-50-24-67-48-14-22-23-48-23-74v-61c0-25 23-46 51-46h649c27 0 50 21 50 46v61c0 26-8 52-23 74-17 24-40 41-66 48z m-286 37c41 0 79 13 111 36 2-27 7-56 29-74-12-60-70-105-140-105s-128 45-140 105c22 18 28 47 29 74 32-23 70-36 111-36z m-173 229c0 1 0 2 0 2v81c0 27 21 48 48 48h266c8 0 15 7 15 15 0 8-7 15-15 15h-266c-43 0-77-35-77-78v-44c-12 18-18 38-18 60v78c0 44 35 80 79 80 8 0 15 6 15 14 0 18 14 33 32 33h204c61 0 110-50 110-111v-94c0-22-6-42-17-60v60c0 8-7 15-15 15s-15-7-15-15v-110c0-104-77-188-173-188s-173 84-173 188v11z m518-449c0-9-9-17-20-17h-649c-12 0-21 8-21 17v61c0 37 23 81 67 94l110 16c17-71 86-123 168-123s151 52 168 123l110-16c44-13 67-57 67-94v-61z m-752 124h-55c-5 0-9 3-9 6v39c0 22 14 48 40 56l80 12c0 0 0 0 1 0 0 0 0 0 0 0 1 0 1 0 2 1 0 0 0 0 0 0 0 0 1 0 1 0 0 0 0 0 0 1 1 0 1 0 1 0 0 0 0 0 0 0 18 10 24 28 26 46 20-11 42-18 66-18 20 0 39 5 57 14 7 3 10 12 7 19-4 8-13 11-20 7-14-7-29-10-44-10-59 0-107 52-107 117v62c0 14 12 26 26 26h38c8 0 14 7 14 15 0 8-6 14-14 14h-38c-31 0-55-24-55-55v-7c-2 5-2 10-2 15v51c0 26 20 46 46 46 8 0 14 7 14 15 0 9 8 16 16 16h19c8 0 14 6 14 14 0 8-6 15-14 15h-19c-20 0-37-13-43-31-35-6-63-38-63-75v-51c0-27 12-52 32-70v0c0-42 16-80 42-106 0-19-2-36-11-43l-78-11c0 0-1 0-1-1-41-11-62-51-62-84v-39c0-19 17-35 38-35h55c8 0 15 7 15 15 0 8-7 14-15 14z m846 129c-1 1-2 1-2 1l-78 11c-9 7-11 24-11 43 26 26 42 64 42 106v0c20 18 32 43 32 71v79c0 42-35 77-78 77h-46c-9 0-15-7-15-15 0-8 6-14 15-14h46c27 0 48-22 48-48v-80c0-5 0-10-2-15v7c0 31-24 55-55 55h-37c-9 0-15-6-15-14 0-8 6-15 15-15h37c15 0 26-12 26-26v-62c0-65-48-117-107-117-15 0-30 3-44 10-7 4-16 1-20-7-3-7 0-16 7-19 18-9 37-14 57-14 24 0 46 7 66 18 2-18 8-36 26-46 0 0 0 0 0 0 0 0 1 0 1 0 0-1 0-1 0-1 0 0 1 0 1 0 0 0 0 0 0 0 1-1 2-1 2-1 0 0 0 0 1 0 0 0 0 0 1 0l79-12c26-8 40-34 40-56v-39c0-3-4-6-9-6h-55c-8 0-15-6-15-14 0-8 7-15 15-15h55c21 0 38 16 38 35v39c0 33-21 73-61 84z" horiz-adv-x="1000" />

<glyph glyph-name="compass-1" unicode="&#xe836;" d="M854 704c-95 94-220 146-354 146s-259-52-354-146c-94-95-146-220-146-354s52-259 146-354c95-94 220-146 354-146s259 52 354 146c94 95 146 220 146 354s-52 259-146 354z m-22-686c-89-89-206-138-332-138s-243 49-332 138c-89 89-138 207-138 332s49 243 138 332c89 89 207 138 332 138s243-49 332-138c89-89 138-206 138-332s-49-243-138-332z m-24 640c-82 82-192 127-308 127s-226-45-308-127c-82-82-127-192-127-308s45-226 127-308c82-82 192-127 308-127s226 45 308 127 127 192 127 308-45 226-127 308z m-293-713v33c0 9-7 15-15 15s-15-6-15-15v-33c-211 8-382 179-390 390h33c9 0 15 7 15 15s-6 15-15 15h-33c8 212 179 382 390 390v-33c0-9 7-15 15-15s15 6 15 15v33c212-8 382-178 390-390h-33c-9 0-15-7-15-15s6-15 15-15h33c-8-211-178-382-390-390z m260 420h-157l105 188c4 6 3 13-2 18-5 5-12 6-18 2l-188-105v157c0 8-7 15-15 15s-15-7-15-15v-174l-29-16c-2-1-4-2-6-3l0 0c-1-1-1-1-2-1-1-1-3-2-4-3l-63 62c-5 6-15 6-21 0-6-6-6-15 0-21l62-63c-2-4-5-8-7-12 0 0 0 0 0 0l-16-29h-174c-8 0-15-7-15-15s7-15 15-15h157l-105-188c-4-6-3-13 2-18 3-3 7-4 11-4 2 0 5 0 7 2l188 105v-157c0-8 7-15 15-15s15 7 15 15v174l31 17c0 0 1 0 1 0 3 2 6 4 9 6l63-62c3-3 6-4 10-4s8 1 11 4c6 6 6 16 0 21l-62 63c3 4 5 8 7 12 0 0 0 0 1 1l15 28h174c8 0 15 7 15 15s-7 15-15 15z m-309 41l5 3c8 4 18 7 29 7 36 0 66-30 66-66s-30-66-66-66-66 30-66 66c0 24 13 44 32 56z m125-27c-9 30-32 53-62 62l142 80-80-142z m-182-58c9-30 32-53 62-62l-142-80 80 142z m91-2c17 0 31 14 31 31s-14 31-31 31-31-14-31-31 14-31 31-31z m0 32c1 0 1 0 1-1s0-1-1-1-1 0-1 1 0 1 1 1z" horiz-adv-x="1000" />

<glyph glyph-name="cup-1" unicode="&#xe837;" d="M987 711c-9 9-21 14-33 14h-173v35c18 7 31 24 31 44 0 25-20 46-46 46h-532c-25 0-46-21-46-46 0-20 13-37 31-44v-35h-173c-12 0-24-5-32-14-9-9-14-20-14-33 1-88 24-173 68-246 44-73 105-128 176-158 1-1 3-1 4-1 40-80 116-138 206-153v-147h-79c-26 0-46-20-46-46v-62c0-8 6-15 14-15h314c8 0 14 7 14 15v62c0 26-20 46-46 46h-79v147c90 15 166 73 206 153 1 0 3 0 4 1 71 30 132 85 176 158 44 73 68 158 68 246 0 13-5 24-13 33z m-753 110h532c9 0 17-8 17-17s-8-17-17-17h-532c-9 0-17 8-17 17s8 17 17 17z m-141-374c-41 69-63 149-64 232 0 4 2 8 5 12 4 3 8 4 12 4h173v-298c0-30 5-58 13-85-55 29-103 75-139 135z m549-520v-48h-284v48c0 9 8 17 17 17h250c9 0 17-8 17-17z m-125 46h-34v144c6-1 11-1 17-1s11 0 17 1v-144z m-17 173c-139 0-251 112-251 251v361h502v-361c0-139-112-251-251-251z m407 301c-36-60-84-106-139-135 8 27 13 55 13 85v298h173c4 0 9-1 12-4 3-4 5-8 5-12-1-83-23-163-64-232z m-257 106h-88l-27 84c-5 15-19 25-35 25-16 0-30-10-35-25l-27-84h-88c-16 0-30-10-35-25-5-16 0-32 13-42l71-51-27-83c-5-16 0-32 14-42 6-5 14-7 21-7s15 2 22 7l71 52 71-52c13-9 30-9 43 0 14 10 19 26 14 42l-27 83 71 51c13 10 18 26 13 42-5 15-19 25-35 25z m4-43l-79-58c-5-3-7-10-6-16l31-94c1-4-2-7-3-8-1-1-5-3-9 0l-79 58c-5 4-12 4-18 0l-79-58c-4-3-8-1-9 0-1 1-4 4-3 8l31 94c2 6-1 13-6 16l-79 58c-4 3-4 7-3 9s2 5 7 5h98c7 0 12 4 14 10l31 94c1 4 5 5 7 5 2 0 6-1 7-5l31-94c2-6 7-10 14-10h98c5 0 7-4 7-5 1-2 1-6-3-9z" horiz-adv-x="1000" />

<glyph glyph-name="diagram" unicode="&#xe838;" d="M620 220c-3 2-7 4-10 4-4 0-8-2-11-4-2-3-4-7-4-11 0-4 2-8 4-10 3-3 7-5 11-5s7 2 10 5c3 2 4 6 4 10 0 4-1 8-4 11z m0 62c-3 3-7 4-10 4-4 0-8-1-11-4-2-3-4-6-4-10 0-4 2-8 4-11 3-2 7-4 11-4 3 0 7 2 10 4 3 3 4 7 4 11 0 4-1 7-4 10z m0 63c-3 3-6 4-10 4-4 0-8-1-11-4-2-3-4-7-4-11 0-3 2-7 4-10 3-3 7-4 11-4 3 0 7 1 10 4 3 3 4 7 4 10 0 4-1 8-4 11z m0 62c-3 3-6 5-10 5s-8-2-11-5c-2-2-4-6-4-10 0-4 2-8 4-10 3-3 7-5 11-5 3 0 7 2 10 5 3 2 4 6 4 10 0 4-1 8-4 10z m0 63c-3 3-7 4-10 4-4 0-8-1-11-4-2-3-4-7-4-10 0-4 2-8 4-11 3-2 7-4 11-4 3 0 7 2 10 4 3 3 4 7 4 11 0 3-1 7-4 10z m-10-497c-4 0-8-1-11-4-2-3-4-7-4-10 0-4 2-8 4-11 3-3 7-4 11-4 3 0 7 1 10 4 3 3 4 7 4 11 0 3-1 7-4 10-3 3-7 4-10 4z m10 59c-3 2-7 4-10 4-4 0-8-2-11-4-2-3-4-7-4-11 0-4 2-7 4-10 3-3 7-4 11-4 3 0 7 1 10 4 3 3 4 6 4 10 0 4-1 8-4 11z m0 62c-3 3-7 5-10 5-4 0-8-2-11-5-2-2-4-6-4-10 0-4 2-8 4-10 3-3 7-5 11-5 3 0 7 2 10 5 3 2 4 6 4 10 0 4-1 8-4 10z m0 63c-3 3-7 4-10 4-4 0-8-1-11-4-2-3-4-7-4-10 0-4 2-8 4-11 3-3 7-4 11-4 3 0 7 1 10 4 3 3 4 7 4 11 0 3-1 7-4 10z m188 63c-3 2-7 4-10 4-4 0-8-2-11-4-3-3-4-7-4-11 0-4 1-8 4-10 3-3 7-5 11-5s7 2 10 5c3 2 4 6 4 10 0 4-1 8-4 11z m0 62c-3 3-7 4-10 4-4 0-8-1-11-4-3-3-4-6-4-10 0-4 1-8 4-11 3-2 7-4 11-4 3 0 7 2 10 4 3 3 4 7 4 11 0 4-1 7-4 10z m0 63c-3 3-7 4-10 4s-8-1-11-4c-3-3-4-7-4-11 0-3 1-7 4-10 3-3 7-4 11-4 3 0 7 1 10 4 3 3 4 7 4 10 0 4-1 8-4 11z m0 62c-3 3-7 5-10 5s-8-2-11-5c-3-2-4-6-4-10 0-4 1-8 4-10 3-3 7-5 11-5 3 0 7 2 10 5 3 2 4 6 4 10 0 4-1 8-4 10z m0 63c-3 3-7 4-10 4-4 0-8-1-11-4-3-3-4-6-4-10s1-8 4-11c3-2 7-4 11-4 3 0 7 2 10 4 3 3 4 7 4 11s-1 7-4 10z m0 63c-3 2-7 4-10 4-4 0-8-2-11-4-3-3-4-7-4-11 0-4 1-7 4-10 3-3 7-4 11-4 3 0 7 1 10 4 3 3 4 6 4 10 0 4-1 8-4 11z m0 62c-3 3-7 5-10 5-4 0-8-2-11-5-3-2-4-6-4-10 0-4 1-8 4-10 3-3 7-5 11-5 3 0 7 2 10 5 3 2 4 6 4 10 0 4-1 8-4 10z m-10-622c-4 0-8-1-11-4-3-3-4-7-4-10 0-4 1-8 4-11 3-3 7-4 11-4 3 0 7 1 10 4 3 3 4 7 4 11 0 3-1 7-4 10-3 3-7 4-10 4z m10 59c-3 2-7 4-10 4-4 0-8-2-11-4-3-3-4-7-4-11 0-4 1-7 4-10 3-3 7-4 11-4 3 0 7 1 10 4 3 3 4 6 4 10 0 4-1 8-4 11z m0 62c-3 3-7 5-10 5-4 0-8-2-11-5-3-2-4-6-4-10 0-4 1-8 4-10 3-3 7-5 11-5 3 0 7 2 10 5 3 2 4 6 4 10 0 4-1 8-4 10z m0 63c-3 3-7 4-10 4-4 0-8-1-11-4-3-3-4-7-4-10 0-4 1-8 4-11 3-3 7-4 11-4 3 0 7 1 10 4 3 3 4 7 4 11 0 3-1 7-4 10z m-376 63c-3 2-6 4-10 4-4 0-8-2-11-4-2-3-4-7-4-11 0-4 2-8 4-10 3-3 7-5 11-5s7 2 10 5c3 2 4 6 4 10 0 4-1 8-4 11z m-10-247c-4 0-8-1-11-4-2-3-4-7-4-10 0-4 2-8 4-11 3-3 7-4 11-4 4 0 7 1 10 4 3 3 4 7 4 11 0 3-1 7-4 10-3 3-6 4-10 4z m10 59c-3 2-6 4-10 4-4 0-8-2-11-4-2-3-4-7-4-11 0-4 2-7 4-10 3-3 7-4 11-4 4 0 7 1 10 4 3 3 4 6 4 10 0 4-1 8-4 11z m0 62c-3 3-6 5-10 5-4 0-8-2-11-5-2-2-4-6-4-10 0-4 2-8 4-10 3-3 7-5 11-5 4 0 7 2 10 5 3 2 4 6 4 10 0 4-1 8-4 10z m0 63c-3 3-6 4-10 4-4 0-8-1-11-4-2-3-4-7-4-10 0-4 2-8 4-11 3-3 7-4 11-4 4 0 7 1 10 4 3 3 4 7 4 11 0 3-1 7-4 10z m-198-184c-4 0-8-1-10-4-3-3-5-7-5-10 0-4 2-8 5-11 2-3 6-4 10-4 4 0 8 1 10 4 3 3 5 7 5 11 0 3-2 7-5 10-2 3-6 4-10 4z m10 59c-2 2-6 4-10 4-4 0-8-2-10-4-3-3-5-7-5-11 0-4 2-7 5-10 2-3 6-4 10-4 4 0 8 1 10 4 3 3 5 6 5 10 0 4-2 8-5 11z m0 62c-2 3-6 5-10 5-4 0-8-2-10-5-3-2-5-6-5-10 0-4 2-8 5-10 2-3 6-5 10-5 4 0 8 2 10 5 3 2 5 6 5 10 0 4-2 8-5 10z m0 63c-2 3-6 4-10 4-4 0-8-1-10-4-3-3-5-7-5-10 0-4 2-8 5-11 2-3 6-4 10-4 4 0 8 1 10 4 3 3 5 7 5 11 0 3-2 7-5 10z m741 538c8 0 15 7 15 15v125c0 1 0 1 0 2 0 0 0 0 0 0 0 1 0 1 0 1 0 0 0 1 0 1 0 0-1 0-1 1 0 0 0 0 0 0 0 1 0 1 0 1 0 0 0 0 0 1 0 0-1 0-1 0 0 0 0 1 0 1 0 0 0 0 0 1-1 0-1 0-1 0 0 0 0 1 0 1-1 0-2 1-2 2 0 0-1 0-1 0 0 0 0 0 0 1-1 0-1 0-1 0 0 0-1 0-1 0 0 0 0 1 0 1-1 0-1 0-1 0 0 0 0 0-1 0 0 0 0 0 0 0-1 0-1 1-1 1 0 0-1 0-1 0 0 0 0 0 0 0-1 0-1 0-1 0-1 0-1 0-1 0-1 0-1 0-1 0h-125c-8 0-15-7-15-15s7-14 15-14h90l-161-161-185-77c0 0 0 0 0 0 0 0-1-1-1-1 0 0 0 0 0 0-1 0-1 0-1 0 0 0-1-1-1-1 0 0 0 0 0 0 0 0-1 0-1-1 0 0 0 0 0 0-1 0-1 0-1-1 0 0 0 0 0 0 0 0-1 0-1-1 0 0 0 0 0 0 0 0-1-1-1-1 0 0 0 0 0 0l-174-276-82 150c-1 0-1 1-1 1 0 0 0 0 0 1 0 0-1 0-1 0 0 1 0 1 0 1-1 0-1 0-1 0 0 1 0 1 0 1-1 0-1 0-1 0 0 1 0 1-1 1 0 0 0 0 0 0 0 0-1 1-1 1 0 0 0 0 0 0-1 0-1 0-2 1 0 0 0 0 0 0 0 0 0 0 0 0 0 0-1 0-1 0 0 0-1 0-1 0 0 0 0 0 0 0-1 0-1 1-1 1-1 0-1 0-1 0 0 0 0 0-1 0 0 0 0 0 0 0-1 0-1 0-1 0 0 0-1 0-1 0 0 0 0 0 0-1-1 0-1 0-1 0 0 0-1 0-1 0 0 0 0 0-1 0 0 0 0 0 0 0-1 0-1 0-1 0-1-1-2-1-2-2 0 0-1 0-1 0 0 0 0 0-1-1 0 0 0 0 0 0 0 0 0-1-1-1 0 0 0 0 0 0 0 0 0-1-1-1 0 0 0 0 0 0 0-1 0-1 0-1-1 0-1-1-1-1 0 0 0 0 0 0 0-1-1-1-1-2 0 0 0 0 0 0l-92-230-161-108v724c0 8-7 15-15 15s-15-7-15-15v-173h-16c-8 0-15-6-15-14s7-15 15-15h16v-159h-16c-8 0-15-6-15-14s7-15 15-15h16v-159h-16c-8 0-15-6-15-14s7-15 15-15h16v-158h-16c-8 0-15-7-15-15s7-15 15-15h16v-158h-16c-8 0-15-7-15-15s7-15 15-15h16v-16c0-8 7-15 15-15s15 7 15 15v16h158v-16c0-8 7-15 15-15s15 7 15 15v16h158v-16c0-8 7-15 15-15s14 7 14 15v16h159v-16c0-8 7-15 15-15s14 7 14 15v16h159v-16c0-8 6-15 15-15s14 7 14 15v16h173c8 0 15 7 15 15s-7 15-15 15h-924v165l181 121c0 0 0 0 0 0 1 0 1 1 2 1 0 0 0 0 0 0 0 1 1 1 1 2 0 0 0 0 0 0 1 0 1 1 1 1 0 1 1 1 1 1 0 0 0 1 1 2 0 0 0 0 0 0l82 206 79-145c0 0 0 0 0 0 0-1 1-1 1-2 0 0 0 0 0 0 0-1 1-1 1-1 0 0 0-1 0-1 1 0 1 0 2-1 0 0 0 0 0 0 0 0 1 0 1-1 0 0 0 0 0 0 0 0 1 0 1 0 0 0 1-1 1-1 0 0 1 0 1 0 0 0 1 0 1 0 0 0 1-1 1-1 0 0 0 0 1 0 0 0 1 0 1 0 1 0 1 0 1 0 0 0 0 0 0 0 0 0 0 0 0 0 2 0 3 0 5 1 1 0 1 1 2 1 0 0 0 0 0 0 0 0 1 0 1 1 0 0 0 0 1 0 0 0 0 1 1 1 0 0 0 0 0 0 0 1 1 1 1 1 0 0 0 0 0 0 0 1 1 1 1 2 0 0 0 0 0 0l186 293 183 77c0 0 0 0 0 0l0 0c0 0 0 0 0 0 1 0 1 0 1 1 1 0 1 0 1 0 0 0 0 0 1 0 0 0 0 1 0 1 1 0 1 0 1 0 0 0 0 1 1 1 0 0 0 0 0 0l0 0c0 0 0 0 0 0l163 163v-90c0-8 6-15 14-15z" horiz-adv-x="1000" />

<glyph glyph-name="dialog" unicode="&#xe839;" d="M562 350v219c0 43-35 78-78 78h-407c-42 0-77-35-77-78v-219c0-43 35-77 77-77h221v-64c0-6 3-11 9-13 1-1 3-2 5-2 4 0 8 2 11 5l74 74h87c43 0 78 34 78 77z m-172-48c-3 0-7-1-10-4l-53-53v42c0 9-7 15-15 15h-235c-26 0-48 22-48 48v219c0 27 22 48 48 48h407c27 0 48-21 48-48v-219c0-26-21-48-48-48h-94z m-297 237h47c8 0 15 6 15 15s-7 14-15 14h-47c-8 0-15-6-15-14s7-15 15-15z m376 29h-266c-9 0-15-6-15-14s6-15 15-15h266c8 0 14 6 14 15s-6 14-14 14z m0-62h-376c-8 0-15-7-15-15s7-15 15-15h376c8 0 14 7 14 15s-6 15-14 15z m0-63h-47c-8 0-15-7-15-15s7-14 15-14h47c8 0 14 6 14 14s-6 15-14 15z m-376-29h266c8 0 15 6 15 14s-7 15-15 15h-266c-8 0-15-7-15-15s7-14 15-14z m376-34h-376c-8 0-15-6-15-14s7-15 15-15h376c8 0 14 7 14 15s-6 14-14 14z m141 18h47c8 0 14 7 14 15s-6 14-14 14h-47c-8 0-15-6-15-14s7-15 15-15z m297 0c8 0 15 7 15 15s-7 14-15 14h-188c-8 0-14-6-14-14s6-15 14-15h188z m-297-63h297c8 0 15 7 15 15s-7 15-15 15h-297c-8 0-15-7-15-15s7-15 15-15z m297-33h-47c-8 0-15-6-15-15s7-14 15-14h47c8 0 15 6 15 14s-7 15-15 15z m-297-29h188c8 0 14 6 14 14s-6 15-14 15h-188c-8 0-15-6-15-15s7-14 15-14z m297-34h-391c-8 0-15-6-15-14s7-15 15-15h391c8 0 15 7 15 15s-7 14-15 14z m16 267h-313c-8 0-15-7-15-15s7-15 15-15h313c26 0 48-21 48-48v-219c0-26-22-48-48-48h-235c-8 0-15-6-15-14v-43l-53 53c-3 3-6 4-10 4h-94c-27 0-48 22-48 48v16c0 8-7 14-15 14s-15-6-15-14v-16c0-42 35-77 78-77h88l74-74c2-3 6-4 10-4 2 0 4 0 6 1 5 2 9 7 9 13v64h220c42 0 77 35 77 77v219c0 43-35 78-77 78z" horiz-adv-x="1000" />

<glyph glyph-name="documentation" unicode="&#xe83a;" d="M813 850h-689c-16 0-30-14-30-30v-33h-32c-17 0-31-13-31-30v-877c0-16 14-30 31-30h689c16 0 30 14 30 30v33h32c17 0 30 13 30 30v877c0 16-13 30-30 30z m-61-923c0 0 0 0 0 0s0 0 0 0v-47c0 0-1-1-1-1h-689c-1 0-1 1-1 1v877c0 1 0 1 1 1h47c0 0 0 0 0 0s0 0 0 0h642c0 0 1 0 1-1v-830z m62 16c0-1 0-1-1-1h-32v815c0 17-14 30-30 30h-628v33c0 0 1 1 1 1h689c1 0 1-1 1-1v-877z m-158 704h-501c-8 0-15-7-15-15s7-15 15-15h501c8 0 14 7 14 15s-6 15-14 15z m0-188h-501c-8 0-15-7-15-15s7-15 15-15h501c8 0 14 7 14 15s-6 15-14 15z m0-439h-501c-8 0-15-6-15-14s7-15 15-15h501c8 0 14 6 14 15s-6 14-14 14z m0 251h-501c-8 0-15-7-15-15s7-15 15-15h501c8 0 14 7 14 15s-6 15-14 15z m-501 284h125c8 0 15 6 15 14s-7 15-15 15h-125c-8 0-15-7-15-15s7-14 15-14z m501 29h-313c-9 0-15-7-15-15s6-14 15-14h313c8 0 14 6 14 14s-6 15-14 15z m-501-92h375c8 0 15 7 15 15s-7 14-15 14h-375c-8 0-15-6-15-14s7-15 15-15z m501 29h-63c-8 0-15-6-15-14s7-15 15-15h63c8 0 14 7 14 15s-6 14-14 14z m0-438h-501c-8 0-15-7-15-15s7-14 15-14h501c8 0 14 6 14 14s-6 15-14 15z m-501 96h125c8 0 15 6 15 14s-7 15-15 15h-125c-8 0-15-6-15-15s7-14 15-14z m501 29h-313c-9 0-15-6-15-15s6-14 15-14h313c8 0 14 6 14 14s-6 15-14 15z m-501-92h375c8 0 15 7 15 15s-7 15-15 15h-375c-8 0-15-7-15-15s7-15 15-15z m501 30h-63c-8 0-15-7-15-15s7-15 15-15h63c8 0 14 7 14 15s-6 15-14 15z m-501 221h203c8 0 15 6 15 14s-7 15-15 15h-203c-8 0-15-7-15-15s7-14 15-14z m501 29h-235c-8 0-15-7-15-15s7-14 15-14h235c8 0 14 6 14 14s-6 15-14 15z m-501-92h328c9 0 15 7 15 15s-6 14-15 14h-328c-8 0-15-6-15-14s7-15 15-15z m501 29h-110c-8 0-15-6-15-14s7-15 15-15h110c8 0 14 7 14 15s-6 14-14 14z m267 235c-26 0-46-20-46-46v-548c0-1 0-3 1-4l30-92v-13c0-8 7-15 15-15s14 7 14 15v13l31 92c0 1 1 3 1 4v548c0 26-21 46-46 46z m0-641l-16 48h32l-16-48z m16 78h-33v471h33v-471z m0 501h-33v16c0 9 8 17 17 17s16-8 16-17v-16z" horiz-adv-x="1000" />

<glyph glyph-name="dollar-bill" unicode="&#xe83b;" d="M203 365c-9 0-15-7-15-15 0-9-8-17-17-17s-16 8-16 17 7 17 16 17c8 0 15 6 15 14s-7 15-15 15c-25 0-46-21-46-46s21-46 46-46 46 21 46 46c0 8-6 15-14 15z m626-32c-9 0-17 8-17 17s8 17 17 17c8 0 14 6 14 14s-6 15-14 15c-26 0-46-21-46-46s20-46 46-46 46 21 46 46c0 8-7 15-15 15s-15-7-15-15c0-9-7-17-16-17z m-329 2c35 0 64-18 64-40s-29-40-64-40-64 19-64 40c0 8-6 15-14 15s-15-7-15-15c0-35 33-63 78-68v-18c0-8 7-15 15-15s15 7 15 15v18c45 5 78 33 78 68 0 39-41 70-93 70-34 0-64 18-64 40s30 40 64 40 64-18 64-40c0-8 6-15 14-15s15 7 15 15c0 35-33 63-78 68v18c0 8-7 15-15 15s-15-7-15-15v-18c-45-5-78-33-78-68 0-39 41-70 93-70z m470 296h-940c-16 0-30-14-30-30v-501c0-17 14-31 30-31h940c16 0 30 14 30 31v501c0 16-14 30-30 30z m1-531c0-1-1-1-1-1h-940c0 0-1 0-1 1v501c0 0 1 1 1 1h940c0 0 1-1 1-1v-501z m-48 374c-44 0-80 36-80 80 0 8-6 14-14 14h-658c-8 0-14-6-14-14 0-44-36-80-80-80-8 0-14-6-14-14v-220c0-8 6-14 14-14 44 0 80-36 80-79 0-9 6-15 14-15h212c0 0 0 0 0 0s0 0 0 0h234c0 0 0 0 0 0s0 0 0 0h212c8 0 14 6 14 15 0 43 36 79 80 79 8 0 14 6 14 14v220c0 8-6 14-14 14z m-203-124c0-77-41-149-107-189h-226c-66 40-107 112-107 189s41 149 107 189h226c66-40 107-112 107-189z m-628-96v192c48 6 86 45 93 93h152c-54-47-86-116-86-189s32-142 86-189h-152c-7 48-45 87-93 93z m816 0c-48-6-86-45-93-93h-152c54 47 87 116 87 189s-33 142-87 189h152c7-48 45-87 93-93v-192z" horiz-adv-x="1000" />

</font>
</defs>
</svg>
